Nina Hagen – Om Namah Shivay!




No Cover available

Artist: Nina Hagen
Year: 1999
Genre: Rock
Notes: Discogs
Add. Notes:
Watch Songs on: YouTube
Cover incl.: Yes
Encoder: FLAC
Bitrate: ~900 kBit/s (44.1 kHz/16 Bit/s)
Log & Cue incl.: Yes/Yes
Size: 806,9 MB
Password: “slam” (without ” “)


All Downloads/Hosters are compatible

Download 1
KatFile.com
Turbobit.net
Rapidgator.net
FileFactory.com
Download 2
KatFile.com
Turbobit.net
Rapidgator.net
FileFactory.com

Tracklist:

Om Namah Shivay!
1-1 Shank Invocation (Ganesha Mantra And Om With 
Didgeridoo) 2:46
1-2 From Durga Saptashati (700 Names In Praise Of 
Mother Durga) 1:59
1-3 Shri Siddha Siddeshvari Mata Haidhakandeshvariji 
Aarati! 4:43
1-4 Mrityunjaya Mantra! 1:42
1-5 Jai Mata Kali Jai Mata Durge! 4:34
1-6 Hare Krsna, Hare Rama! 5:31
1-7 He Shiva Shankara! 5:46
1-8 Om Namah Shivay! 5:45
1-9 Gayatri Mantra! 1:30
1-10 Oh Mata Haidhakandeshvari! 5:16
1-11 Sankirtana! 7:53
1-12 Hara Hara Amarnatha Gange 6:23
1-13 Shanti Mantra 1:46

1008 Indische Nächte Live + Bonus Movie
2-1 Shiva Shiva Shiva Shambo! 5:50
2-1 Jai Mata Kali, Jai Mata Durge! 3:27
2-3 Amma Amma Taye! 5:33
2-4 Shiva Shiva Mahadeva! 4:16
2-5 Hare Krsna, Hare Rama! 3:50
2-6 Jai Bajaranga Bali, Jai Hanuman Ki! 5:18
2-7 He Shiva Shankara! 3:46
2-8 Only Love Can Save Your Love 4:46
2-9 Shiva Maheshwara! 6:45
2-10 Omhaidakhandi! 6:12
2-11 Om Namah Shivay! 5:15
2-12 Jai Shambo! 3:37
2-13 A Call To Mother's Grace And Gifts 4:01

Video 1 Bonus Movie 6:30

EAC-Log, CUE-Sheed & NFO:

Click to open spoiler
Exact Audio Copy V1.0 beta 3 from 29. August 2011

EAC extraction logfile from 8. November 2011, 13:13

Nina Hagen / Om Namah Shivay! (CD1)

Used drive : PIONEER DVD-RW DVR-118L Adapter: 0 ID: 0

Read mode : Secure
Utilize accurate stream : Yes
Defeat audio cache : Yes
Make use of C2 pointers : No

Read offset correction : 6
Overread into Lead-In and Lead-Out : No
Fill up missing offset samples with silence : Yes
Delete leading and trailing silent blocks : No
Null samples used in CRC calculations : Yes
Used interface : Native Win32 interface for Win NT & 2000

Used output format : User Defined Encoder
Selected bitrate : 1024 kBit/s
Quality : High
Add ID3 tag : No
Command line compressor : C:\Program Files\Exact Audio Copy\Flac\flac.exe
Additional command line options : -V -8 -T “Date=%year%” -T “Genre=%genre%” %source%

TOC of the extracted CD

Track | Start | Length | Start sector | End sector
———————————————————
1 | 0:00.00 | 2:46.34 | 0 | 12483
2 | 2:46.34 | 1:59.13 | 12484 | 21421
3 | 4:45.47 | 4:43.12 | 21422 | 42658
4 | 9:28.59 | 1:41.71 | 42659 | 50304
5 | 11:10.55 | 4:34.69 | 50305 | 70923
6 | 15:45.49 | 5:31.35 | 70924 | 95783
7 | 21:17.09 | 5:46.44 | 95784 | 121777
8 | 27:03.53 | 5:45.05 | 121778 | 147657
9 | 32:48.58 | 1:30.07 | 147658 | 154414
10 | 34:18.65 | 5:16.21 | 154415 | 178135
11 | 39:35.11 | 7:53.51 | 178136 | 213661
12 | 47:28.62 | 6:23.46 | 213662 | 242432
13 | 53:52.33 | 1:45.72 | 242433 | 250379

Range status and errors

Selected range

Filename E:\Nina Hagen [2002] Om Namah Shivay! (2CD)\CD1\Nina Hagen – Om Namah Shivay! (CD1).wav

Peak level 99.2 %
Extraction speed 1.8 X
Range quality 100.0 %
Test CRC 506DAA6D
Copy CRC 506DAA6D
Copy OK

No errors occurred

AccurateRip summary

Track 1 accurately ripped (confidence 5) [B0B2CD64] (AR v1)
Track 2 accurately ripped (confidence 5) [CC1F5DDA] (AR v1)
Track 3 accurately ripped (confidence 6) [A21539A7] (AR v1)
Track 4 accurately ripped (confidence 5) [26B3038D] (AR v1)
Track 5 accurately ripped (confidence 6) [BD950D51] (AR v1)
Track 6 accurately ripped (confidence 6) [56BFA58C] (AR v1)
Track 7 accurately ripped (confidence 6) [7FD0DB18] (AR v1)
Track 8 accurately ripped (confidence 5) [73B804EA] (AR v1)
Track 9 accurately ripped (confidence 5) [2DAAA8DE] (AR v1)
Track 10 accurately ripped (confidence 6) [95669221] (AR v1)
Track 11 accurately ripped (confidence 5) [CB4D3C18] (AR v1)
Track 12 accurately ripped (confidence 6) [0C9C122E] (AR v1)
Track 13 accurately ripped (confidence 5) [DD5B2C3E] (AR v1)

All tracks accurately ripped

End of status report

—- CUETools DB Plugin V2.1.3

[CTDB TOCID: GJveGbXoAL3EpnH0jFl85hfPCs0-] found, Submit result: GJveGbXoAL3EpnH0jFl85hfPCs0- has been confirmed
[88d3be81] (7/7) Accurately ripped

==== Log checksum DB5D976467B8F24A6E4577DE7FA869E151F852BECE9423AFA5694CB88D338F34 ====

Exact Audio Copy V1.0 beta 3 from 29. August 2011

EAC extraction logfile from 8. November 2011, 2:23

Nina Hagen / Om Namah Shivay! (CD2)

Used drive : PIONEER DVD-RW DVR-118L Adapter: 0 ID: 0

Read mode : Secure
Utilize accurate stream : Yes
Defeat audio cache : Yes
Make use of C2 pointers : No

Read offset correction : 6
Overread into Lead-In and Lead-Out : No
Fill up missing offset samples with silence : Yes
Delete leading and trailing silent blocks : No
Null samples used in CRC calculations : Yes
Used interface : Native Win32 interface for Win NT & 2000

Used output format : User Defined Encoder
Selected bitrate : 1024 kBit/s
Quality : High
Add ID3 tag : No
Command line compressor : C:\Program Files\Exact Audio Copy\Flac\flac.exe
Additional command line options : -V -8 -T “Date=%year%” -T “Genre=%genre%” %source%

TOC of the extracted CD

Track | Start | Length | Start sector | End sector
———————————————————
1 | 0:00.00 | 5:50.24 | 0 | 26273
2 | 5:50.24 | 3:27.63 | 26274 | 41861
3 | 9:18.12 | 5:33.50 | 41862 | 66886
4 | 14:51.62 | 4:16.00 | 66887 | 86086
5 | 19:07.62 | 3:50.70 | 86087 | 103406
6 | 22:58.57 | 5:18.29 | 103407 | 127285
7 | 28:17.11 | 3:46.45 | 127286 | 144280
8 | 32:03.56 | 4:46.58 | 144281 | 165788
9 | 36:50.39 | 6:45.49 | 165789 | 196212
10 | 43:36.13 | 6:12.17 | 196213 | 224129
11 | 49:48.30 | 5:15.17 | 224130 | 247771
12 | 55:03.47 | 3:37.40 | 247772 | 264086
13 | 58:41.12 | 4:00.72 | 264087 | 282158
14 | 65:14.09 | 7:14.48 | 293559 | 326156

Range status and errors

Selected range

Filename E:\Nina Hagen – Om Namah Shivay! (CD2).wav

Peak level 100.0 %
Extraction speed 2.0 X
Range quality 100.0 %
Test CRC 86CCE48D
Copy CRC 86CCE48D
Copy OK

No errors occurred

AccurateRip summary

Track 1 accurately ripped (confidence 4) [568D61A4] (AR v1)
Track 2 accurately ripped (confidence 4) [F8CF6101] (AR v1)
Track 3 accurately ripped (confidence 4) [5C79FF89] (AR v1)
Track 4 accurately ripped (confidence 4) [CA8B78A8] (AR v1)
Track 5 accurately ripped (confidence 4) [6CEB410F] (AR v1)
Track 6 accurately ripped (confidence 4) [0C8A8783] (AR v1)
Track 7 accurately ripped (confidence 4) [F5FB70D3] (AR v1)
Track 8 accurately ripped (confidence 4) [26838FE2] (AR v1)
Track 9 accurately ripped (confidence 4) [60663EF7] (AR v1)
Track 10 accurately ripped (confidence 4) [92318AB4] (AR v1)
Track 11 accurately ripped (confidence 4) [C489730D] (AR v1)
Track 12 accurately ripped (confidence 4) [95807492] (AR v1)
Track 13 accurately ripped (confidence 4) [01FE3A7A] (AR v1)

All tracks accurately ripped

End of status report

—- CUETools DB Plugin V2.1.3

[CTDB TOCID: 8ydI4Wp9Ntw7JJObq5Q0K2Jpmnc-] disk not present in database, Submit result: 8ydI4Wp9Ntw7JJObq5Q0K2Jpmnc- has been uploaded

==== Log checksum 5497E6CB75AA654E610C74B74A2556FAB00D1F5BB52BBD697ABC7CD598F365AA ====

REM GENRE Ethnic
REM DATE 2002
REM DISCID B90D0A0D
REM COMMENT “ExactAudioCopy v1.0b3”
PERFORMER “Nina Hagen”
TITLE “Om Namah Shivay! (CD1)”
FILE “Nina Hagen – Om Namah Shivay! (CD1).flac” WAVE
TRACK 01 AUDIO
TITLE “Shank Invocation, Ganesha Mantra And Om With Digeridoo”
PERFORMER “Nina Hagen”
INDEX 01 00:00:00
TRACK 02 AUDIO
TITLE “From Durga Saptashati”
PERFORMER “Nina Hagen”
INDEX 01 02:46:34
TRACK 03 AUDIO
TITLE “Shri Siddha Siddeshvari Mata Haidhakandeshvariji Aarati”
PERFORMER “Nina Hagen”
INDEX 01 04:45:47
TRACK 04 AUDIO
TITLE “Mrityunjaya Mantra!”
PERFORMER “Nina Hagen”
INDEX 01 09:28:59
TRACK 05 AUDIO
TITLE “Jai Mata Kali Jai Mata Durge!”
PERFORMER “Nina Hagen”
INDEX 01 11:10:55
TRACK 06 AUDIO
TITLE “Hare Krsna Hare Rama”
PERFORMER “Nina Hagen”
INDEX 01 15:45:49
TRACK 07 AUDIO
TITLE “He Shiva Shankara!”
PERFORMER “Nina Hagen”
INDEX 01 21:17:09
TRACK 08 AUDIO
TITLE “Om Namah Shivay!”
PERFORMER “Nina Hagen”
INDEX 01 27:03:53
TRACK 09 AUDIO
TITLE “Gayatri Mantra!”
PERFORMER “Nina Hagen”
INDEX 01 32:48:58
TRACK 10 AUDIO
TITLE “Oh Mata Haidhakandeshvari!”
PERFORMER “Nina Hagen”
INDEX 01 34:18:65
TRACK 11 AUDIO
TITLE “Sankirtana!”
PERFORMER “Nina Hagen”
INDEX 01 39:35:11
TRACK 12 AUDIO
TITLE “Hara Hara Amarnatha Gange”
PERFORMER “Nina Hagen”
INDEX 01 47:28:62
TRACK 13 AUDIO
TITLE “Shanti Mantra”
PERFORMER “Nina Hagen”
INDEX 01 53:52:33

REM GENRE Ethnic
REM DATE 2002
REM DISCID C710FC0E
REM COMMENT “ExactAudioCopy v1.0b3”
PERFORMER “Nina Hagen”
TITLE “Om Namah Shivay! (CD2)”
FILE “Nina Hagen – Om Namah Shivay! (CD2).flac” WAVE
TRACK 01 AUDIO
TITLE “Shiva Shambu”
PERFORMER “Nina Hagen”
INDEX 01 00:00:00
TRACK 02 AUDIO
TITLE “Jay Ma Kali Mata Namaha A”
PERFORMER “Nina Hagen”
INDEX 01 05:50:24
TRACK 03 AUDIO
TITLE “Amba Amba Taje”
PERFORMER “Nina Hagen”
INDEX 01 09:18:12
TRACK 04 AUDIO
TITLE “Shiva Shiva Mahadeva”
PERFORMER “Nina Hagen”
INDEX 01 14:51:62
TRACK 05 AUDIO
TITLE “Hare Krishna Hare Rama”
PERFORMER “Nina Hagen”
INDEX 01 19:07:62
TRACK 06 AUDIO
TITLE “Jai Bajarangabali”
PERFORMER “Nina Hagen”
INDEX 01 22:58:57
TRACK 07 AUDIO
TITLE “Hey Shiva Shankara”
PERFORMER “Nina Hagen”
INDEX 01 28:17:11
TRACK 08 AUDIO
TITLE “Only Love (Can Save Our Life)”
PERFORMER “Nina Hagen”
INDEX 01 32:03:56
TRACK 09 AUDIO
TITLE “Shiva Maheshvara”
PERFORMER “Nina Hagen”
INDEX 01 36:50:39
TRACK 10 AUDIO
TITLE “Heriakandi Bol”
PERFORMER “Nina Hagen”
INDEX 01 43:36:13
TRACK 11 AUDIO
TITLE “Om Namah Shivay”
PERFORMER “Nina Hagen”
INDEX 01 49:48:30
TRACK 12 AUDIO
TITLE “Jay Shambu!!”
PERFORMER “Nina Hagen”
INDEX 01 55:03:47
TRACK 13 AUDIO
TITLE “I Came To Surrender Teri Sharana Main Aya”
PERFORMER “Nina Hagen”
INDEX 01 58:41:12


0

Publication author

offline 15 hours

Chaos

3
Comments: 4Publics: 3418Registration: 02-02-2019
Spread the Download

Leave a Reply

Your email address will not be published. Required fields are marked *

Enter the text from the image below
 

This site uses Akismet to reduce spam. Learn how your comment data is processed.