Nina Hagen – Nunsexmonkrock




No Cover available

Artist: Nina Hagen
Year: 1982/1991
Genre: Rock
Notes: Discogs
Add. Notes:
Watch Songs on: YouTube
Cover incl.: Yes
Encoder: FLAC
Bitrate: ~900 kBit/s (44.1 kHz/16 Bit/s)
Log & Cue incl.: Yes/Yes
Size: 401,3 MB
Password: “slam” (without ” “)


All Downloads/Hosters are compatible

Download 1
KatFile.com
Turbobit.net
Rapidgator.net
FileFactory.com
Download 2
KatFile.com
Turbobit.net
Rapidgator.net
FileFactory.com

Tracklist:

1 Antiworld 4:41
2 Smack Jack 5:10
3 Taitschi-Tarot 3:20
4 Dread Love 4:02
5 Future Is Now 2:53
6 Born In Xixax 3:50
7 Iki Maska 5:08
8 Dr. Art 3:45
9 Cosma Shiva 5:00
10 UFO 4:40

EAC-Log, CUE-Sheed & NFO:

Click to open spoiler
Exact Audio Copy V0.99 prebeta 4 from 23. January 2008

EAC extraction logfile from 7. October 2009, 17:47

Nina Hagen / Nina Hagen Band/Nunsexmonkrock

Used drive : PIONEER DVD-RW DVR-105 Adapter: 1 ID: 0

Read mode : Secure
Utilize accurate stream : Yes
Defeat audio cache : Yes
Make use of C2 pointers : No

Read offset correction : 48
Overread into Lead-In and Lead-Out : Yes
Fill up missing offset samples with silence : Yes
Delete leading and trailing silent blocks : No
Null samples used in CRC calculations : Yes
Used interface : Installed external ASPI interface

Used output format : Monkey’s Audio Lossless Encoder
Selected bitrate : High Lossless Compression
Quality : High
Add ID3 tag : Yes
Command line compressor : C:\Program Files\Monkey’s Audio\Monkey’s Audio.exe

TOC of the extracted CD

Track | Start | Length | Start sector | End sector
———————————————————
1 | 0:00.00 | 4:42.50 | 0 | 21199
2 | 4:42.50 | 5:17.25 | 21200 | 44999
3 | 10:00.00 | 2:05.32 | 45000 | 54406
4 | 12:05.32 | 4:07.65 | 54407 | 72996
5 | 16:13.22 | 2:56.58 | 72997 | 86254
6 | 19:10.05 | 2:54.70 | 86255 | 99374
7 | 22:05.00 | 5:10.35 | 99375 | 122659
8 | 27:15.35 | 4:50.50 | 122660 | 144459
9 | 32:06.10 | 3:18.72 | 144460 | 159381
10 | 35:25.07 | 4:53.63 | 159382 | 181419
11 | 40:18.70 | 5:31.40 | 181420 | 206284
12 | 45:50.35 | 4:03.62 | 206285 | 224571
13 | 49:54.22 | 4:13.00 | 224572 | 243546
14 | 54:07.22 | 4:54.18 | 243547 | 265614

Range status and errors

Selected range

Filename \\.PSF\Home\Desktop\ RIP\Nina Hagen – Nina Hagen Band Nunsexmonkrock\Nina Hagen – Nina Hagen Band Nunsexmonkrock.wav

Peak level 100.0 %
Range quality 100.0 %
Test CRC 156C50D8
Copy CRC 156C50D8
Copy OK

No errors occurred

AccurateRip summary

Track 1 accurately ripped (confidence 7) [0F7F2279]
Track 2 accurately ripped (confidence 7) [F0941D2E]
Track 3 accurately ripped (confidence 7) [9EFED0C7]
Track 4 accurately ripped (confidence 7) [20E4B28B]
Track 5 accurately ripped (confidence 7) [0C041EA6]
Track 6 accurately ripped (confidence 7) [8583A238]
Track 7 accurately ripped (confidence 7) [4E0A4455]
Track 8 accurately ripped (confidence 7) [01E95951]
Track 9 accurately ripped (confidence 7) [5304C68D]
Track 10 accurately ripped (confidence 7) [1D888BE5]
Track 11 accurately ripped (confidence 7) [05A8B3A6]
Track 12 accurately ripped (confidence 7) [C0315A66]
Track 13 accurately ripped (confidence 7) [74F52001]
Track 14 accurately ripped (confidence 7) [2799F8A2]

All tracks accurately ripped

End of status report

REM GENRE Punk
REM DATE 1991
REM DISCID C80DD50E
REM COMMENT “ExactAudioCopy v0.99pb4”
PERFORMER “Nina Hagen”
TITLE “Nina Hagen Band/Nunsexmonkrock”
FILE “Nina Hagen – Nina Hagen Band Nunsexmonkrock.ape” WAVE
TRACK 01 AUDIO
TITLE “Antiworld”
PERFORMER “Nina Hagen”
INDEX 01 00:00:00
TRACK 02 AUDIO
TITLE “Smack Jack”
PERFORMER “Nina Hagen”
INDEX 00 04:41:62
INDEX 01 04:42:50
TRACK 03 AUDIO
TITLE “Taitschi-Tarot”
PERFORMER “Nina Hagen”
INDEX 00 09:59:25
INDEX 01 10:00:00
TRACK 04 AUDIO
TITLE “Dread Love”
PERFORMER “Nina Hagen”
INDEX 01 12:05:32
TRACK 05 AUDIO
TITLE “Future Is Now”
PERFORMER “Nina Hagen”
INDEX 00 16:13:20
INDEX 01 16:13:22
TRACK 06 AUDIO
TITLE “Born In Xixax”
PERFORMER “Nina Hagen”
INDEX 00 19:09:15
INDEX 01 19:10:05
TRACK 07 AUDIO
TITLE “Iki Maska”
PERFORMER “Nina Hagen”
INDEX 01 22:05:00
TRACK 08 AUDIO
TITLE “Dr. Art”
PERFORMER “Nina Hagen”
INDEX 00 27:14:05
INDEX 01 27:15:35
TRACK 09 AUDIO
TITLE “Cosma Shiva”
PERFORMER “Nina Hagen”
INDEX 00 32:05:60
INDEX 01 32:06:10
TRACK 10 AUDIO
TITLE “UFO”
PERFORMER “Nina Hagen”
INDEX 00 35:24:65
INDEX 01 35:25:07
TRACK 11 AUDIO
TITLE “TV-Glotzer (White Punks On Dope)”
PERFORMER “Nina Hagen”
INDEX 00 40:17:45
INDEX 01 40:18:70
TRACK 12 AUDIO
TITLE “Superboy”
PERFORMER “Nina Hagen”
INDEX 00 45:47:47
INDEX 01 45:50:35
TRACK 13 AUDIO
TITLE “African Reggae”
PERFORMER “Nina Hagen”
INDEX 00 49:52:35
INDEX 01 49:54:22
TRACK 14 AUDIO
TITLE “Wir Leben Immer Noch (Lucky Number)”
PERFORMER “Nina Hagen”
INDEX 00 54:04:40
INDEX 01 54:07:22


Leave a Reply

Your email address will not be published. Required fields are marked *

Enter the text from the image below
 

This site uses Akismet to reduce spam. Learn how your comment data is processed.