Nina Hagen – Nina Electro




No Cover available


Artist: Nina Hagen
Year: 2014
Genre: Rock
Notes: Discogs
Add. Notes:
Watch Songs on: YouTube
Cover incl.: Yes
Encoder: FLAC
Bitrate: ~1000 kBit/s (44.1 kHz/16 Bit/s)
Log & Cue incl.: Yes/Yes
Size: 541,1 MB
Password: “slam” (without ” “)


All Downloads/Hosters are compatible

Download 1
KatFile.com
Turbobit.net
Rapidgator.net
FileFactory.com
Download 2
KatFile.com
Turbobit.net
Rapidgator.net
FileFactory.com

Tracklist:

01. S.U.N. Project feat. Nina Hagen - Dance Of The 
Witches
02. Nina Hagen - Durga Kali Mantra (Astral Mix by Dar 
Beida 04)
03. Nina Hagen - So Bad (Utah Saints Radio Remix)
04. Nina Hagen & Lene Lovich - Don't Kill The Animals ('91 
Mix)
05. Nina Hagen & Adamski - Get Your Body!
06. Schwarze Puppen & Nina Hagen - Tanz! (Airplay Mix)
07. Daron Hogg & Nina Hagen - My Name Is Debbie Dog
08. Killer (Adamski Remix Promo)
09. S.U.N. Project & Nina Hagen - Endless
10. Nina Hagen & KMFDM - Witness
11. LadyGodiva's Operation [Nina Hagen sample] - 
Peeping Pong
12. Zack Herr Mann - A Strong Receiver (Nina Hagen Mix)
13. S.U.N. Project & Nina Hagen - We Are In Space
14. Nina Hagen & Loka Nunda - My Sweet Lord Remix

EAC-Log, CUE-Sheed & NFO:

Click to open spoiler
Exact Audio Copy V1.0 beta 3 from 29. August 2011

Отчёт EAC об извлечении, выполненном 25. ноября 2014, 2:57

Nina Hagen / Nina Electro

Дисковод: PIONEER BD-RW BDR-209D Adapter: 0 ID: 0

Режим чтения : Достоверность
Использование точного потока : Да
Отключение кэша аудио : Да
Использование указателей C2 : Нет

Коррекция смещения при чтении : 667
Способность читать области Lead-in и Lead-out : Нет
Заполнение пропущенных сэмплов тишиной : Да
Удаление блоков с тишиной в начале и конце : Нет
При вычислениях CRC использовались нулевые сэмплы : Да
Интерфейс : Встроенный Win32-интерфейс для Win NT/2000

Выходной формат : Пользовательский кодировщик
Выбранный битрейт : 128 kBit/s
Качество : Высокий
Добавление ID3-тега : Нет
Утилита сжатия : C:\Program Files (x86)\Exact Audio Copy\Flac\flac.exe
Дополнительные параметры : -V -8 -T “Date=%year%” -T “Genre=%genre%” %source%

TOC извлечённого CD

Трек | Старт | Длительность | Начальный сектор | Конечный сектор
———————————————————————
1 | 0:00.00 | 4:28.02 | 0 | 20101
2 | 4:28.02 | 5:47.23 | 20102 | 46149
3 | 10:15.25 | 7:04.34 | 46150 | 77983
4 | 17:19.59 | 4:46.40 | 77984 | 99473
5 | 22:06.24 | 6:52.54 | 99474 | 130427
6 | 28:59.03 | 3:39.21 | 130428 | 146873
7 | 32:38.24 | 2:51.15 | 146874 | 159713
8 | 35:29.39 | 3:29.73 | 159714 | 175461
9 | 38:59.37 | 7:32.72 | 175462 | 209433
10 | 46:32.34 | 7:21.73 | 209434 | 242581
11 | 53:54.32 | 4:21.69 | 242582 | 262225
12 | 58:16.26 | 5:06.44 | 262226 | 285219
13 | 63:22.70 | 7:56.56 | 285220 | 320975
14 | 71:19.51 | 6:30.58 | 320976 | 350283

Характеристики диапазона извлечения и сообщения об ошибках

Выбранный диапазон

Имя файла D:\Flac\Новая папка\Nina Hagen – Nina Electro.wav

Подозрительная позиция 1:16:56

Пиковый уровень 100.0 %
Скорость извлечения 5.8 X
Качество диапазона 99.8 %
CRC теста 0E1BC91F
CRC копии 074AADBA
Копирование завершено

Были ошибки

Конец отчёта

==== Контрольная сумма отчёта 31D32533AAFC760B4FC4CACE561FC16D542FB98EE6D5E10EE939D395EA896CBF ====

REM GENRE Punk
REM DATE 2014
REM DISCID B5123E0E
REM COMMENT “ExactAudioCopy v1.0b3”
PERFORMER “Nina Hagen ”
TITLE “Nina Electro”
FILE “Nina Hagen – Nina Electro.flac” WAVE
TRACK 01 AUDIO
TITLE “Dance Of The Witches”
PERFORMER “Nina Hagen & S.U.N. Project”
INDEX 01 00:00:00
TRACK 02 AUDIO
TITLE “Durga Kali Mantra (Astral Mix)”
PERFORMER “Nina Hagen & Dar Beida 04”
INDEX 01 04:28:02
TRACK 03 AUDIO
TITLE “So Bad (Utah Saints Radio Remix)”
PERFORMER “Nina Hagen ”
INDEX 01 10:15:25
TRACK 04 AUDIO
TITLE “Don’t Kill The Animals (’91 Mix)”
PERFORMER “Nina Hagen & Lene Lovich”
INDEX 01 17:19:59
TRACK 05 AUDIO
TITLE “Get Your Body!”
PERFORMER “Nina Hagen & Adamski”
INDEX 01 22:06:24
TRACK 06 AUDIO
TITLE “Tanz! (Airplay Mix)”
PERFORMER “Nina Hagen & Schwarze Puppen”
INDEX 01 28:59:03
TRACK 07 AUDIO
TITLE “My Name Is Debbie Dog”
PERFORMER “Nina Hagen & Daron Hogg”
INDEX 01 32:38:24
TRACK 08 AUDIO
TITLE “Killer (Adamski Remix Promo)”
PERFORMER “Nina Hagen & Adamski”
INDEX 01 35:29:39
TRACK 09 AUDIO
TITLE “Endless”
PERFORMER “Nina Hagen & S.U.N. Project”
INDEX 01 38:59:37
TRACK 10 AUDIO
TITLE “Witness”
PERFORMER “Nina Hagen & KMFDM”
INDEX 01 46:32:34
TRACK 11 AUDIO
TITLE “Peeping Pong ”
PERFORMER “Nina Hagen & LadyGodiva’s Operation”
INDEX 01 53:54:32
TRACK 12 AUDIO
TITLE “A Strong Receiver (Nina Hagen Mix)”
PERFORMER “Nina Hagen & Zack Herr Mann”
INDEX 01 58:16:26
TRACK 13 AUDIO
TITLE “We’re In Space”
PERFORMER “Nina Hagen & S.U.N. Project”
INDEX 01 63:22:70
TRACK 14 AUDIO
TITLE “My Sweet Lord Remix”
PERFORMER “Nina Hagen & Loka Nunda”
INDEX 01 71:19:51


Leave a Reply

Your email address will not be published. Required fields are marked *

Enter the text from the image below
 

This site uses Akismet to reduce spam. Learn how your comment data is processed.