Nina Hagen – Freedom Fighter Vol. 2




No Cover available

Artist: Nina Hagen
Year: 2014
Genre: Punk
Notes: Discogs
Add. Notes: Bootleg
Watch Songs on: YouTube
Cover incl.: No
Encoder: FLAC
Bitrate: ~1000 kBit/s (44.1 kHz/16 Bit/s)
Log & Cue incl.: Yes/Yes
Size: 1078,1 MB
Password: “slam” (without ” “)


All Downloads/Hosters are compatible

Download 1
KatFile.com
Turbobit.net
Rapidgator.net
FileFactory.com
Download 2
KatFile.com
Turbobit.net
Rapidgator.net
FileFactory.com

Tracklist:

CD 1:
01. The Aria
02. New York N.Y. Remix
03. Der Wassermann
04. Vopo
05. I’m Making Monsters For My Friends
06. Rock’N'Roller
07. Alptraum (Edit)
08. Hardcore Rebell (Hochzeitsparty)
09. Pank (Acoustic)
10. Wir Sind Das Volk (Edit)
11. So Bad Remix
12. Die Rattenkonigin
13. Tirili
14. Zarah Hot Tracks Remix
15. Return Of The Mother (Radio Version)
16. Der Traum Ist Aus
17. My Way (Edit)

CD 2:
01. Killer Remix (Edit)
02. Schachmatt
03. Soma Koma (Edit)
04. Size Doesn’t Matter
05. Der Wind Hat Mir Ein Lied Erzahlt
06. Liebeskummer Lohnt Sich Nicht
07. Immer Lauter
08. Nina Hagen
09. Berlin (Father You Should Have Killed Hitler)
10. TV Glotzer (Edit)
11. Die Alten Knacker
12. You Get What You Deserve
13. Pillow Talk (Single Version)
14. Sally’s Lied
15. Go Ahead Extended World Version
16. Mary X Mas
17. Let The Sunshine In (Edit)

EAC-Log, CUE-Sheed & NFO:

Click to open spoiler
Exact Audio Copy V0.99 prebeta 3 from 28. July 2007

Отчёт EAC об извлечении, выполненном 25. февраля 2014, 21:34

Nina Hagen / Freedom Fighter Vol. 2 CD 2

Дисковод: TSSTcorpCDDVDW SE-S084F Adapter: 2 ID: 0

Режим чтения : Достоверность
Использование точного потока : Да
Отключение кэша аудио : Да
Использование указателей C2 : Нет

Коррекция смещения при чтении : 6
Способность читать области Lead-in и Lead-out : Нет
Заполнение пропущенных сэмплов тишиной : Да
Удаление блоков с тишиной в начале и конце : Нет
При вычислениях CRC использовались нулевые сэмплы : Да
Интерфейс : Встроенный Win32-интерфейс для Win NT/2000

Выходной формат : Пользовательский кодировщик
Выбранный битрейт : 128 kBit/s
Качество : Высокий
Добавление ID3-тэга : Нет
Утилита сжатия : C:\Program Files (x86)\Exact Audio Copy\FLAC\FLAC.EXE
Дополнительные параметры : -6 -V -T “ARTIST=%a” -T “TITLE=%t” -T “ALBUM=%g” -T “DATE=%y” -T “TRACKNUMBER=%n” -T “GENRE=%m” -T “COMMENT=%e” %s -o %d

TOC извлечённого CD

Трек | Старт | Длительность | Начальный сектор | Конечный сектор
———————————————————————
1 | 0:00.00 | 7:37.73 | 0 | 34347
2 | 7:37.73 | 5:04.46 | 34348 | 57193
3 | 12:42.44 | 5:08.46 | 57194 | 80339
4 | 17:51.15 | 3:42.74 | 80340 | 97063
5 | 21:34.14 | 3:16.72 | 97064 | 111835
6 | 24:51.11 | 4:21.55 | 111836 | 131465
7 | 29:12.66 | 4:44.50 | 131466 | 152815
8 | 33:57.41 | 3:56.16 | 152816 | 170531
9 | 37:53.57 | 5:07.63 | 170532 | 193619
10 | 43:01.45 | 3:18.02 | 193620 | 208471
11 | 46:19.47 | 2:47.09 | 208472 | 221005
12 | 49:06.56 | 4:02.46 | 221006 | 239201
13 | 53:09.27 | 3:43.31 | 239202 | 255957
14 | 56:52.58 | 1:45.59 | 255958 | 263891
15 | 58:38.42 | 4:34.70 | 263892 | 284511
16 | 63:13.37 | 4:48.28 | 284512 | 306139
17 | 68:01.65 | 8:50.28 | 306140 | 345917

Характеристики диапазона извлечения и сообщения об ошибках

Выбранный диапазон

Имя файла D:\FLAC\Nina Hagen – Freedom Fighter Vol. 2 CD 2.wav

Пиковый уровень 100.0 %
Качество диапазона 100.0 %
CRC теста 1EE5EE5B
CRC копии 1EE5EE5B
Копирование… OK

Ошибок не произошло

AccurateRip: сводка

Трек 1 нет в базе данных
Трек 2 нет в базе данных
Трек 3 нет в базе данных
Трек 4 нет в базе данных
Трек 5 нет в базе данных
Трек 6 нет в базе данных
Трек 7 нет в базе данных
Трек 8 нет в базе данных
Трек 9 нет в базе данных
Трек 10 нет в базе данных
Трек 11 нет в базе данных
Трек 12 нет в базе данных
Трек 13 нет в базе данных
Трек 14 нет в базе данных
Трек 15 нет в базе данных
Трек 16 нет в базе данных
Трек 17 нет в базе данных

Ни одного трека нет в базе AccurateRip

Конец отчёта

Exact Audio Copy V0.99 prebeta 3 from 28. July 2007

Отчёт EAC об извлечении, выполненном 25. февраля 2014, 20:16

Nina Hagen / Freedom Fighter Vol. 2 CD 1

Дисковод: TSSTcorpCDDVDW SE-S084F Adapter: 2 ID: 0

Режим чтения : Достоверность
Использование точного потока : Да
Отключение кэша аудио : Да
Использование указателей C2 : Нет

Коррекция смещения при чтении : 6
Способность читать области Lead-in и Lead-out : Нет
Заполнение пропущенных сэмплов тишиной : Да
Удаление блоков с тишиной в начале и конце : Нет
При вычислениях CRC использовались нулевые сэмплы : Да
Интерфейс : Встроенный Win32-интерфейс для Win NT/2000

Выходной формат : Пользовательский кодировщик
Выбранный битрейт : 128 kBit/s
Качество : Высокий
Добавление ID3-тэга : Нет
Утилита сжатия : C:\Program Files (x86)\Exact Audio Copy\FLAC\FLAC.EXE
Дополнительные параметры : -6 -V -T “ARTIST=%a” -T “TITLE=%t” -T “ALBUM=%g” -T “DATE=%y” -T “TRACKNUMBER=%n” -T “GENRE=%m” -T “COMMENT=%e” %s -o %d

TOC извлечённого CD

Трек | Старт | Длительность | Начальный сектор | Конечный сектор
———————————————————————
1 | 0:00.00 | 4:56.54 | 0 | 22253
2 | 4:56.54 | 6:53.21 | 22254 | 53249
3 | 11:50.00 | 4:30.08 | 53250 | 73507
4 | 16:20.08 | 3:27.55 | 73508 | 89087
5 | 19:47.63 | 2:33.65 | 89088 | 100627
6 | 22:21.53 | 3:20.58 | 100628 | 115685
7 | 25:42.36 | 4:44.08 | 115686 | 136993
8 | 30:26.44 | 2:48.56 | 136994 | 149649
9 | 33:15.25 | 1:34.26 | 149650 | 156725
10 | 34:49.51 | 4:40.02 | 156726 | 177727
11 | 39:29.53 | 7:01.49 | 177728 | 209351
12 | 46:31.27 | 3:30.42 | 209352 | 225143
13 | 50:01.69 | 3:47.47 | 225144 | 242215
14 | 53:49.41 | 7:22.64 | 242216 | 275429
15 | 61:12.30 | 3:50.60 | 275430 | 292739
16 | 65:03.15 | 5:21.61 | 292740 | 316875
17 | 70:25.01 | 6:14.30 | 316876 | 344955

Характеристики диапазона извлечения и сообщения об ошибках

Выбранный диапазон

Имя файла D:\FLAC\Новая папка\Nina Hagen – Freedom Fighter Vol. 2 CD 1.wav

Пиковый уровень 100.0 %
Качество диапазона 100.0 %
CRC теста 6AA2429D
CRC копии 6AA2429D
Копирование… OK

Ошибок не произошло

AccurateRip: сводка

Трек 1 нет в базе данных
Трек 2 нет в базе данных
Трек 3 нет в базе данных
Трек 4 нет в базе данных
Трек 5 нет в базе данных
Трек 6 нет в базе данных
Трек 7 нет в базе данных
Трек 8 нет в базе данных
Трек 9 нет в базе данных
Трек 10 нет в базе данных
Трек 11 нет в базе данных
Трек 12 нет в базе данных
Трек 13 нет в базе данных
Трек 14 нет в базе данных
Трек 15 нет в базе данных
Трек 16 нет в базе данных
Трек 17 нет в базе данных

Ни одного трека нет в базе AccurateRip

Конец отчёта

REM GENRE Punk
REM DATE 2014
REM DISCID FC11F711
REM COMMENT “ExactAudioCopy v0.99pb3”
PERFORMER “Nina Hagen”
TITLE “Freedom Fighter Vol. 2 CD 1”
FILE “Nina Hagen – Freedom Fighter Vol. 2 CD 1.flac” WAVE
TRACK 01 AUDIO
TITLE “The Aria”
PERFORMER “Nina Hagen”
INDEX 01 00:00:00
TRACK 02 AUDIO
TITLE “New York N.Y. Remix”
PERFORMER “Nina Hagen”
INDEX 01 04:56:54
TRACK 03 AUDIO
TITLE “Der Wassermann”
PERFORMER “Nina Hagen”
INDEX 01 11:50:00
TRACK 04 AUDIO
TITLE “Vopo”
PERFORMER “Nina Hagen”
INDEX 01 16:20:08
TRACK 05 AUDIO
TITLE “I’m Making Monsters For My Friends”
PERFORMER “Nina Hagen”
INDEX 01 19:47:63
TRACK 06 AUDIO
TITLE “Rock’N’Roller”
PERFORMER “Nina Hagen”
INDEX 01 22:21:53
TRACK 07 AUDIO
TITLE “Alptraum (Edit)”
PERFORMER “Nina Hagen”
INDEX 01 25:42:36
TRACK 08 AUDIO
TITLE “Hardcore Rebell (Hochzeitsparty)”
PERFORMER “Nina Hagen”
INDEX 01 30:26:44
TRACK 09 AUDIO
TITLE “Pank (Acoustic)”
PERFORMER “Nina Hagen”
INDEX 01 33:15:25
TRACK 10 AUDIO
TITLE “Wir Sind Das Volk (Edit)”
PERFORMER “Nina Hagen”
INDEX 01 34:49:51
TRACK 11 AUDIO
TITLE “So Bad Remix”
PERFORMER “Nina Hagen”
INDEX 01 39:29:53
TRACK 12 AUDIO
TITLE “Die Rattenkonigin”
PERFORMER “Nina Hagen”
INDEX 01 46:31:27
TRACK 13 AUDIO
TITLE “Tirili”
PERFORMER “Nina Hagen”
INDEX 01 50:01:69
TRACK 14 AUDIO
TITLE “Zarah Hot Tracks Remix”
PERFORMER “Nina Hagen”
INDEX 01 53:49:41
TRACK 15 AUDIO
TITLE “Return Of The Mother (Radio Version)”
PERFORMER “Nina Hagen”
INDEX 01 61:12:30
TRACK 16 AUDIO
TITLE “Der Traum Ist Aus”
PERFORMER “Nina Hagen”
INDEX 01 65:03:15
TRACK 17 AUDIO
TITLE “My Way (Edit)”
PERFORMER “Nina Hagen”
INDEX 01 70:25:01

REM GENRE Punk
REM DATE 2014
REM DISCID 09120411
REM COMMENT “ExactAudioCopy v0.99pb3”
PERFORMER “Nina Hagen ”
TITLE “Freedom Fighter Vol. 2 CD 2”
FILE “Nina Hagen – Freedom Fighter Vol. 2 CD 2.flac” WAVE
TRACK 01 AUDIO
TITLE “Killer Remix (Edit)”
PERFORMER “Nina Hagen ”
INDEX 01 00:00:00
TRACK 02 AUDIO
TITLE “Schachmatt”
PERFORMER “Nina Hagen ”
INDEX 01 07:37:73
TRACK 03 AUDIO
TITLE “Soma Koma (Edit)”
PERFORMER “Nina Hagen ”
INDEX 01 12:42:44
TRACK 04 AUDIO
TITLE “Size Doesn’t Matter”
PERFORMER “Nina Hagen ”
INDEX 01 17:51:15
TRACK 05 AUDIO
TITLE “Der Wind Hat Mir Ein Lied Erzahlt”
PERFORMER “Nina Hagen ”
INDEX 01 21:34:14
TRACK 06 AUDIO
TITLE “Liebeskummer Lohnt Sich Nicht”
PERFORMER “Nina Hagen ”
INDEX 01 24:51:11
TRACK 07 AUDIO
TITLE “Immer Lauter”
PERFORMER “Nina Hagen ”
INDEX 01 29:12:66
TRACK 08 AUDIO
TITLE “Nina Hagen”
PERFORMER “Nina Hagen ”
INDEX 01 33:57:41
TRACK 09 AUDIO
TITLE “Berlin (Father You Should Have Killed Hitler)”
PERFORMER “Nina Hagen ”
INDEX 01 37:53:57
TRACK 10 AUDIO
TITLE “TV Glotzer (Edit)”
PERFORMER “Nina Hagen ”
INDEX 01 43:01:45
TRACK 11 AUDIO
TITLE “Die Alten Knacker”
PERFORMER “Nina Hagen ”
INDEX 01 46:19:47
TRACK 12 AUDIO
TITLE “You Get What You Deserve”
PERFORMER “Nina Hagen ”
INDEX 01 49:06:56
TRACK 13 AUDIO
TITLE “Pillow Talk (Single Version)”
PERFORMER “Nina Hagen ”
INDEX 01 53:09:27
TRACK 14 AUDIO
TITLE “Sally’s Lied”
PERFORMER “Nina Hagen ”
INDEX 01 56:52:58
TRACK 15 AUDIO
TITLE “Go Ahead Extended World Version”
PERFORMER “Nina Hagen ”
INDEX 01 58:38:42
TRACK 16 AUDIO
TITLE “Mary X Mas”
PERFORMER “Nina Hagen ”
INDEX 01 63:13:37
TRACK 17 AUDIO
TITLE “Let The Sunshine In (Edit)”
PERFORMER “Nina Hagen ”
INDEX 01 68:01:65


Leave a Reply

Your email address will not be published. Required fields are marked *

This site uses Akismet to reduce spam. Learn how your comment data is processed.