Nina Hagen – Freedom Fighter Vol. 1




No Cover available

Artist: Nina Hagen
Year: 2014
Genre: Rock
Notes: Discogs
Add. Notes: Bootleg
Watch Songs on: YouTube
Cover incl.: No
Encoder: FLAC
Bitrate: ~1000 kBit/s (44.1 kHz/16 Bit/s)
Log & Cue incl.: Yes/Yes
Size: 1065,9 MB
Password: “slam” (without ” “)


All Downloads/Hosters are compatible

Download 1
KatFile.com
Turbobit.net
Rapidgator.net
FileFactory.com
Download 2
KatFile.com
Turbobit.net
Rapidgator.net
FileFactory.com

Tracklist:

CD 1:

01. Gloria Halleluja Amen
02. Freedom Fighter
03. Handgrenade
04. Shiva
05. Universelles Radio Remix
06. Ave Maria (Edit)
07. Gimmi Your Love
08. Love Will Survive (Die Liebe Siegt Immer)
09. Schon Ist Die Welt
10. Frank Mills
11. Alabama Song
12. Laminin
13. Killer (Edit)
14. So Bad
15. Witness
16. Die Klavierlehrerin (Edit)

CD 2:

01. Eisern Union!
02. Kinky Melody
03. Personal Jesus (Edit)
04. Frequenzkontrolle
05. Romeo & Juliaaah
06. Herrmann Hiess Er (Edit)
07. Punkhochzeit
08. Lass Mich In Ruhe
09. The God Of Aquarius Remix
10. I’m a Believer
11. Luft
12. Love Heart Attack Remix
13. Manner
14. Get Your Body !
15. Ich Hasse Santa Claus
16. Seemann (Edit)

EAC-Log, CUE-Sheed & NFO:

Click to open spoiler
Exact Audio Copy V0.99 prebeta 3 from 28. July 2007

Отчёт EAC об извлечении, выполненном 25. февраля 2014, 16:54

Nina Hagen / Freedom Fighter Vol. 1 CD 1

Дисковод: TSSTcorpCDDVDW SE-S084F Adapter: 2 ID: 0

Режим чтения : Достоверность
Использование точного потока : Да
Отключение кэша аудио : Да
Использование указателей C2 : Нет

Коррекция смещения при чтении : 6
Способность читать области Lead-in и Lead-out : Нет
Заполнение пропущенных сэмплов тишиной : Да
Удаление блоков с тишиной в начале и конце : Нет
При вычислениях CRC использовались нулевые сэмплы : Да
Интерфейс : Встроенный Win32-интерфейс для Win NT/2000

Выходной формат : Пользовательский кодировщик
Выбранный битрейт : 128 kBit/s
Качество : Высокий
Добавление ID3-тэга : Нет
Утилита сжатия : C:\Program Files (x86)\Exact Audio Copy\FLAC\FLAC.EXE
Дополнительные параметры : -6 -V -T “ARTIST=%a” -T “TITLE=%t” -T “ALBUM=%g” -T “DATE=%y” -T “TRACKNUMBER=%n” -T “GENRE=%m” -T “COMMENT=%e” %s -o %d

TOC извлечённого CD

Трек | Старт | Длительность | Начальный сектор | Конечный сектор
———————————————————————
1 | 0:00.00 | 1:44.46 | 0 | 7845
2 | 1:44.46 | 3:13.41 | 7846 | 22361
3 | 4:58.12 | 4:30.04 | 22362 | 42615
4 | 9:28.16 | 4:11.69 | 42616 | 61509
5 | 13:40.10 | 7:01.15 | 61510 | 93099
6 | 20:41.25 | 7:29.73 | 93100 | 126847
7 | 28:11.23 | 3:47.13 | 126848 | 143885
8 | 31:58.36 | 4:27.43 | 143886 | 163953
9 | 36:26.04 | 3:32.50 | 163954 | 179903
10 | 39:58.54 | 3:05.05 | 179904 | 193783
11 | 43:03.59 | 3:32.38 | 193784 | 209721
12 | 46:36.22 | 3:42.60 | 209722 | 226431
13 | 50:19.07 | 6:08.52 | 226432 | 254083
14 | 56:27.59 | 4:58.34 | 254084 | 276467
15 | 61:26.18 | 7:21.73 | 276468 | 309615
16 | 68:48.16 | 7:55.39 | 309616 | 345279

Характеристики диапазона извлечения и сообщения об ошибках

Выбранный диапазон

Имя файла D:\FLAC\Nina Hagen – Freedom Fighter Vol. 1 CD 1.wav

Пиковый уровень 100.0 %
Качество диапазона 100.0 %
CRC теста F98A6C04
CRC копии F98A6C04
Копирование… OK

Ошибок не произошло

AccurateRip: сводка

Трек 1 нет в базе данных
Трек 2 нет в базе данных
Трек 3 нет в базе данных
Трек 4 нет в базе данных
Трек 5 нет в базе данных
Трек 6 нет в базе данных
Трек 7 нет в базе данных
Трек 8 нет в базе данных
Трек 9 нет в базе данных
Трек 10 нет в базе данных
Трек 11 нет в базе данных
Трек 12 нет в базе данных
Трек 13 нет в базе данных
Трек 14 нет в базе данных
Трек 15 нет в базе данных
Трек 16 нет в базе данных

Ни одного трека нет в базе AccurateRip

Конец отчёта

Exact Audio Copy V0.99 prebeta 3 from 28. July 2007

Отчёт EAC об извлечении, выполненном 25. февраля 2014, 18:53

Nina Hagen / Freedom Fighter Vol. 1 CD 2

Дисковод: TSSTcorpCDDVDW SE-S084F Adapter: 2 ID: 0

Режим чтения : Достоверность
Использование точного потока : Да
Отключение кэша аудио : Да
Использование указателей C2 : Нет

Коррекция смещения при чтении : 6
Способность читать области Lead-in и Lead-out : Нет
Заполнение пропущенных сэмплов тишиной : Да
Удаление блоков с тишиной в начале и конце : Нет
При вычислениях CRC использовались нулевые сэмплы : Да
Интерфейс : Встроенный Win32-интерфейс для Win NT/2000

Выходной формат : Пользовательский кодировщик
Выбранный битрейт : 128 kBit/s
Качество : Высокий
Добавление ID3-тэга : Нет
Утилита сжатия : C:\Program Files (x86)\Exact Audio Copy\FLAC\FLAC.EXE
Дополнительные параметры : -6 -V -T “ARTIST=%a” -T “TITLE=%t” -T “ALBUM=%g” -T “DATE=%y” -T “TRACKNUMBER=%n” -T “GENRE=%m” -T “COMMENT=%e” %s -o %d

TOC извлечённого CD

Трек | Старт | Длительность | Начальный сектор | Конечный сектор
———————————————————————
1 | 0:00.00 | 5:01.73 | 0 | 22647
2 | 5:01.73 | 3:57.25 | 22648 | 40447
3 | 8:59.23 | 5:30.12 | 40448 | 65209
4 | 14:29.35 | 4:55.03 | 65210 | 87337
5 | 19:24.38 | 3:15.31 | 87338 | 101993
6 | 22:39.69 | 4:10.70 | 101994 | 120813
7 | 26:50.64 | 3:38.34 | 120814 | 137197
8 | 30:29.23 | 2:23.15 | 137198 | 147937
9 | 32:52.38 | 7:00.34 | 147938 | 179471
10 | 39:52.72 | 4:26.04 | 179472 | 199425
11 | 44:19.01 | 3:40.44 | 199426 | 215969
12 | 47:59.45 | 5:55.73 | 215970 | 242667
13 | 53:55.43 | 4:44.70 | 242668 | 264037
14 | 58:40.38 | 6:51.65 | 264038 | 294927
15 | 65:32.28 | 3:32.28 | 294928 | 310855
16 | 69:04.56 | 7:26.58 | 310856 | 344363

Характеристики диапазона извлечения и сообщения об ошибках

Выбранный диапазон

Имя файла D:\FLAC\Новая папка\Nina Hagen – Freedom Fighter Vol. 1 CD 2.wav

Пиковый уровень 100.0 %
Качество диапазона 100.0 %
CRC теста 90C9ECC2
CRC копии 90C9ECC2
Копирование… OK

Ошибок не произошло

AccurateRip: сводка

Трек 1 нет в базе данных
Трек 2 нет в базе данных
Трек 3 нет в базе данных
Трек 4 нет в базе данных
Трек 5 нет в базе данных
Трек 6 нет в базе данных
Трек 7 нет в базе данных
Трек 8 нет в базе данных
Трек 9 нет в базе данных
Трек 10 нет в базе данных
Трек 11 нет в базе данных
Трек 12 нет в базе данных
Трек 13 нет в базе данных
Трек 14 нет в базе данных
Трек 15 нет в базе данных
Трек 16 нет в базе данных

Ни одного трека нет в базе AccurateRip

Конец отчёта

REM GENRE Punk
REM DATE 2014
REM DISCID D211FB10
REM COMMENT “ExactAudioCopy v0.99pb3”
PERFORMER “Nina Hagen”
TITLE “Freedom Fighter Vol. 1 CD 1”
FILE “Nina Hagen – Freedom Fighter Vol. 1 CD 1.flac” WAVE
TRACK 01 AUDIO
TITLE “Gloria Halleluja Amen”
PERFORMER “Nina Hagen”
INDEX 01 00:00:00
TRACK 02 AUDIO
TITLE “Freedom Fighter”
PERFORMER “Nina Hagen”
INDEX 01 01:44:46
TRACK 03 AUDIO
TITLE “Handgrenade”
PERFORMER “Nina Hagen”
INDEX 01 04:58:12
TRACK 04 AUDIO
TITLE “Shiva”
PERFORMER “Nina Hagen”
INDEX 01 09:28:16
TRACK 05 AUDIO
TITLE “Universelles Radio Remix”
PERFORMER “Nina Hagen”
INDEX 01 13:40:10
TRACK 06 AUDIO
TITLE “Ave Maria (Edit)”
PERFORMER “Nina Hagen”
INDEX 01 20:41:25
TRACK 07 AUDIO
TITLE “Gimmi Your Love”
PERFORMER “Nina Hagen”
INDEX 01 28:11:23
TRACK 08 AUDIO
TITLE “Love Will Survive (Die Liebe Siegt Immer)”
PERFORMER “Nina Hagen”
INDEX 01 31:58:36
TRACK 09 AUDIO
TITLE “Schon Ist Die Welt”
PERFORMER “Nina Hagen”
INDEX 01 36:26:04
TRACK 10 AUDIO
TITLE “Frank Mills”
PERFORMER “Nina Hagen”
INDEX 01 39:58:54
TRACK 11 AUDIO
TITLE “Alabama Song”
PERFORMER “Nina Hagen”
INDEX 01 43:03:59
TRACK 12 AUDIO
TITLE “Laminin”
PERFORMER “Nina Hagen”
INDEX 01 46:36:22
TRACK 13 AUDIO
TITLE “Killer (Edit)”
PERFORMER “Nina Hagen”
INDEX 01 50:19:07
TRACK 14 AUDIO
TITLE “So Bad”
PERFORMER “Nina Hagen”
INDEX 01 56:27:59
TRACK 15 AUDIO
TITLE “Witness”
PERFORMER “Nina Hagen”
INDEX 01 61:26:18
TRACK 16 AUDIO
TITLE “Die Klavierlehrerin (Edit)”
PERFORMER “Nina Hagen”
INDEX 01 68:48:16

REM GENRE Punk
REM DATE 2014
REM DISCID D811EF10
REM COMMENT “ExactAudioCopy v0.99pb3”
PERFORMER “Nina Hagen ”
TITLE “Freedom Fighter Vol. 1 CD 2”
FILE “Nina Hagen – Freedom Fighter Vol. 1 CD 2.flac” WAVE
TRACK 01 AUDIO
TITLE “Eisern Union !”
PERFORMER “Nina Hagen ”
INDEX 01 00:00:00
TRACK 02 AUDIO
TITLE “Kinky Melody”
PERFORMER “Nina Hagen ”
INDEX 01 05:01:73
TRACK 03 AUDIO
TITLE “Personal Jesus (Edit)”
PERFORMER “Nina Hagen ”
INDEX 01 08:59:23
TRACK 04 AUDIO
TITLE “Frequenzkontrolle”
PERFORMER “Nina Hagen ”
INDEX 01 14:29:35
TRACK 05 AUDIO
TITLE “Romeo & Juliaaah”
PERFORMER “Nina Hagen ”
INDEX 01 19:24:38
TRACK 06 AUDIO
TITLE “Herrmann Hiess Er (Edit)”
PERFORMER “Nina Hagen ”
INDEX 01 22:39:69
TRACK 07 AUDIO
TITLE “Punkhochzeit”
PERFORMER “Nina Hagen ”
INDEX 01 26:50:64
TRACK 08 AUDIO
TITLE “Lass Mich In Ruhe”
PERFORMER “Nina Hagen ”
INDEX 01 30:29:23
TRACK 09 AUDIO
TITLE “The God Of Aquarius Remix”
PERFORMER “Nina Hagen ”
INDEX 01 32:52:38
TRACK 10 AUDIO
TITLE “I’m a Believer”
PERFORMER “Nina Hagen ”
INDEX 01 39:52:72
TRACK 11 AUDIO
TITLE “Luft”
PERFORMER “Nina Hagen ”
INDEX 01 44:19:01
TRACK 12 AUDIO
TITLE “Love Heart Attack Remix”
PERFORMER “Nina Hagen ”
INDEX 01 47:59:45
TRACK 13 AUDIO
TITLE “Manner”
PERFORMER “Nina Hagen ”
INDEX 01 53:55:43
TRACK 14 AUDIO
TITLE “Get Your Body !”
PERFORMER “Nina Hagen ”
INDEX 01 58:40:38
TRACK 15 AUDIO
TITLE “Ich Hasse Santa Claus”
PERFORMER “Nina Hagen ”
INDEX 01 65:32:28
TRACK 16 AUDIO
TITLE “Seemann (Edit)”
PERFORMER “Nina Hagen ”
INDEX 01 69:04:56


Leave a Reply

Your email address will not be published. Required fields are marked *

Enter the text from the image below
 

This site uses Akismet to reduce spam. Learn how your comment data is processed.