Nightwish – Wishmaster




Artist: Nightwish
Year: 2000
Genre: Metal
Notes: Discogs
Add. Notes:
Cover incl.: Yes
Encoder: FLAC
Bitrate: ~1000 kBit/s (44.1 kHz/16 Bit/s)
Log & Cue incl.: Yes
Size: 388,88 MB
Password: “slam” (without ” “)


All Downloads/Hosters are compatible

Download 1
Turbobit.net
Rapidgator.net
UploadEver.com
KatFile.com
UsersDrive.com
Download 2
Turbobit.net
Rapidgator.net
UploadEver.com
KatFile.com
UsersDrive.com
Download 3
Turbobit.net
Rapidgator.net
UploadEver.com
KatFile.com
UsersDrive.com

Tracklist:

1 - She Is My Sin - 4:46
2 - The Kinslayer - 3:58
3 - Come Cover Me - 4:34
4 - Wanderlust - 4:50
5 - Two For Tragedy - 3:50
6 - Wishmaster - 4:24
7 - Bare Grace Misery - 3:41
8 - Crownless - 4:28
9 - Deep Silent Complete - 3:57
10 - Dead Boy's Poem - 6:47
11 - FantasMic - 8:17

EAC-Log, CUE-Sheed & NFO:

Click to open spoiler
Exact Audio Copy V0.99 prebeta 4 from 23. January 2008

Отчёт EAC об извлечении, выполненном 27. апреля 2009, 17:02

Nightwish / Wishmaster

Дисковод: _NEC DVD_RW ND-3550A Adapter: 0 ID: 1

Режим чтения : Достоверность
Использование точного потока : Да
Отключение кэша аудио : Да
Использование указателей C2 : Нет

Коррекция смещения при чтении : 48
Способность читать области Lead-in и Lead-out : Нет
Заполнение пропущенных сэмплов тишиной : Да
Удаление блоков с тишиной в начале и конце : Нет
При вычислениях CRC использовались нулевые сэмплы : Да
Интерфейс : Установленный внешний ASPI-интерфейс

Выходной формат : Внутренние WAV-операции
Формат сэмплов : 44.100 Гц; 16 бит; стерео

TOC извлечённого CD

Трек | Старт | Длительность | Начальный сектор | Конечный сектор
———————————————————————
1 | 0:00.00 | 4:46.17 | 0 | 21466
2 | 4:46.17 | 3:58.73 | 21467 | 39389
3 | 8:45.15 | 4:34.32 | 39390 | 59971
4 | 13:19.47 | 4:50.30 | 59972 | 81751
5 | 18:10.02 | 3:50.43 | 81752 | 99044
6 | 22:00.45 | 4:24.02 | 99045 | 118846
7 | 26:24.47 | 3:41.20 | 118847 | 135441
8 | 30:05.67 | 4:28.55 | 135442 | 155596
9 | 34:34.47 | 3:57.35 | 155597 | 173406
10 | 38:32.07 | 6:47.25 | 173407 | 203956
11 | 45:19.32 | 8:17.65 | 203957 | 241296

Характеристики диапазона извлечения и сообщения об ошибках

Выбранный диапазон

Имя файла E:\Music\Nightwish Discography\Albums\2000 – Wishmaster (Drakkar)\Nightwish – Wishmaster.wav

Пиковый уровень 100.0 %
Качество диапазона 100.0 %
CRC копии C150400D
Копирование… OK

Ошибок не произошло

AccurateRip: сводка

Трек 1 точное извлечение (доверие 3) [BA78AD9A]
Трек 2 точное извлечение (доверие 3) [40C8CF86]
Трек 3 точное извлечение (доверие 3) [9AFF841D]
Трек 4 точное извлечение (доверие 3) [426C6724]
Трек 5 точное извлечение (доверие 3) [0833B3AE]
Трек 6 точное извлечение (доверие 3) [65C7CAD1]
Трек 7 точное извлечение (доверие 3) [A1376A6C]
Трек 8 точное извлечение (доверие 3) [0E7AAE0F]
Трек 9 точное извлечение (доверие 3) [15BB3FF5]
Трек 10 точное извлечение (доверие 3) [B5E42CF4]
Трек 11 точное извлечение (доверие 3) [8BFCEA54]

Все треки извлечены точно

Конец отчёта

REM GENRE “Symphonic Metal”
REM DATE 2000
REM DISCID 880C910B
REM COMMENT “ExactAudioCopy v0.99pb4”
PERFORMER “Nightwish”
TITLE “Wishmaster”
FILE “Nightwish – Wishmaster.flac” FLAC
TRACK 01 AUDIO
TITLE “She Is My Sin”
PERFORMER “Nightwish”
INDEX 01 00:00:00
TRACK 02 AUDIO
TITLE “The Kinslayer”
PERFORMER “Nightwish”
INDEX 01 04:46:17
TRACK 03 AUDIO
TITLE “Come Cover Me”
PERFORMER “Nightwish”
INDEX 00 08:45:12
INDEX 01 08:45:15
TRACK 04 AUDIO
TITLE “Wanderlust”
PERFORMER “Nightwish”
INDEX 00 13:19:43
INDEX 01 13:19:47
TRACK 05 AUDIO
TITLE “Two For Tragedy”
PERFORMER “Nightwish”
INDEX 01 18:10:02
TRACK 06 AUDIO
TITLE “Wishmaster”
PERFORMER “Nightwish”
INDEX 01 22:00:45
TRACK 07 AUDIO
TITLE “Bare Grace Misery”
PERFORMER “Nightwish”
INDEX 01 26:24:47
TRACK 08 AUDIO
TITLE “Crownless”
PERFORMER “Nightwish”
INDEX 00 30:04:25
INDEX 01 30:05:67
TRACK 09 AUDIO
TITLE “Deep Silent Complete”
PERFORMER “Nightwish”
INDEX 00 34:31:38
INDEX 01 34:34:47
TRACK 10 AUDIO
TITLE “Dead Boy’s Poem”
PERFORMER “Nightwish”
INDEX 00 38:32:06
INDEX 01 38:32:07
TRACK 11 AUDIO
TITLE “FantasMic”
PERFORMER “Nightwish”
INDEX 01 45:19:32


Leave a Reply

Your email address will not be published. Required fields are marked *

This site uses Akismet to reduce spam. Learn how your comment data is processed.