Nightwish – Walking In The Air




Artist: Nightwish
Year: 2011
Genre: Metal
Notes: Discogs
Add. Notes:
Encoder: FLAC
Bitrate: ~1000 kBit/s (44.1 kHz/16 Bit/s)
Size: 484,2 MB
Password: “slam” (without ” “)


Crypted via FileCrypt.cc:

.

Crypted via Relink.to:

Tracklist:

1 - Walking In The Air - 5:28
2 - Angels Fall First - 5:34
3 - Sleepwalker - 3:04
4 - Sleeping Sun - 4:01
5 - Dead Boy's Poem - 6:47-
6 - Deep Silent Complete - 3:57
7 - Feel For You - 3:54
8 - The Phantom Of The Opera - 4:09
9 - Ocean Soul - 4:14
10 - Lagoon - 3:46
11 - Swanheart - 4:44
12 - Two For Tragedy - 3:51
13 - A Return To The Sea - 5:46
14 - Away - 4:32
15 - Forever Yours - 3:51

EAC-Log, CUE-Sheed & NFO:

Click to open spoiler
Exact Audio Copy V0.99 prebeta 5 from 4. May 2009

Отчёт EAC об извлечении, выполненном 30. июня 2011, 2:04

Nightwish / Walking In The Air – The Greatest Ballads

Дисковод: Optiarc DVD RW AD-5260S Adapter: 3 ID: 0

Режим чтения : Достоверность
Использование точного потока : Да
Отключение кэша аудио : Да
Использование указателей C2 : Нет

Коррекция смещения при чтении : 48
Способность читать области Lead-in и Lead-out : Нет
Заполнение пропущенных сэмплов тишиной : Да
Удаление блоков с тишиной в начале и конце : Нет
При вычислениях CRC использовались нулевые сэмплы : Да
Интерфейс : Встроенный Win32-интерфейс для Win NT/2000

Выходной формат : Внутренние WAV-операции
Формат сэмплов : 44.100 Гц; 16 бит; стерео

TOC извлечённого CD

Трек | Старт | Длительность | Начальный сектор | Конечный сектор
———————————————————————
1 | 0:00.00 | 5:29.26 | 0 | 24700
2 | 5:29.26 | 5:33.63 | 24701 | 49738
3 | 11:03.14 | 3:07.72 | 49739 | 63835
4 | 14:11.11 | 4:04.30 | 63836 | 82165
5 | 18:15.41 | 6:49.72 | 82166 | 112912
6 | 25:05.38 | 3:58.71 | 112913 | 130833
7 | 29:04.34 | 3:56.50 | 130834 | 148583
8 | 33:01.09 | 4:11.06 | 148584 | 167414
9 | 37:12.15 | 4:16.19 | 167415 | 186633
10 | 41:28.34 | 3:47.15 | 186634 | 203673
11 | 45:15.49 | 4:47.29 | 203674 | 225227
12 | 50:03.03 | 3:53.13 | 225228 | 242715
13 | 53:56.16 | 5:48.12 | 242716 | 268827
14 | 59:44.28 | 4:32.74 | 268828 | 289301
15 | 64:17.27 | 3:51.28 | 289302 | 306654

Характеристики диапазона извлечения и сообщения об ошибках

Выбранный диапазон

Имя файла E:\Music\World\Nightwish full\Nightwish Discography\The Best\2011 -Walking In The Air (Drakkar)\Nightwish – Walking In The Air – The Greatest Ballads.wav

Пиковый уровень 100.0 %
Качество диапазона 100.0 %
CRC теста 33F980FB
CRC копии 33F980FB
Копирование… OK

Ошибок не произошло

AccurateRip: сводка

Трек 1 нет в базе данных
Трек 2 нет в базе данных
Трек 3 нет в базе данных
Трек 4 нет в базе данных
Трек 5 нет в базе данных
Трек 6 нет в базе данных
Трек 7 нет в базе данных
Трек 8 нет в базе данных
Трек 9 нет в базе данных
Трек 10 нет в базе данных
Трек 11 нет в базе данных
Трек 12 нет в базе данных
Трек 13 нет в базе данных
Трек 14 нет в базе данных
Трек 15 нет в базе данных

Ни одного трека нет в базе AccurateRip

Конец отчёта

REM GENRE “Symphonic Metal”
REM DATE 2011
REM DISCID E10FF80F
REM COMMENT “ExactAudioCopy v0.99pb5”
PERFORMER “Nightwish”
TITLE “Walking In The Air – The Greatest Ballads”
FILE “Nightwish – Walking In The Air – The Greatest Ballads.flac” FLAC
TRACK 01 AUDIO
TITLE “Walking In The Air”
PERFORMER “Nightwish”
INDEX 01 00:00:00
TRACK 02 AUDIO
TITLE “Angels Fall First”
PERFORMER “Nightwish”
INDEX 00 05:26:26
INDEX 01 05:29:26
TRACK 03 AUDIO
TITLE “Sleepwalker”
PERFORMER “Nightwish”
INDEX 00 11:00:14
INDEX 01 11:03:14
TRACK 04 AUDIO
TITLE “Sleeping Sun”
PERFORMER “Nightwish”
INDEX 00 14:08:11
INDEX 01 14:11:11
TRACK 05 AUDIO
TITLE “Dead Boy’s Poem”
PERFORMER “Nightwish”
INDEX 00 18:12:41
INDEX 01 18:15:41
TRACK 06 AUDIO
TITLE “Deep Silent Complete”
PERFORMER “Nightwish”
INDEX 00 25:02:38
INDEX 01 25:05:38
TRACK 07 AUDIO
TITLE “Feel For You”
PERFORMER “Nightwish”
INDEX 00 29:01:34
INDEX 01 29:04:34
TRACK 08 AUDIO
TITLE “The Phantom Of The Opera”
PERFORMER “Nightwish”
INDEX 00 32:58:09
INDEX 01 33:01:09
TRACK 09 AUDIO
TITLE “Ocean Soul”
PERFORMER “Nightwish”
INDEX 00 37:09:15
INDEX 01 37:12:15
TRACK 10 AUDIO
TITLE “Lagoon”
PERFORMER “Nightwish”
INDEX 00 41:25:34
INDEX 01 41:28:34
TRACK 11 AUDIO
TITLE “Swanheart”
PERFORMER “Nightwish”
INDEX 00 45:12:49
INDEX 01 45:15:49
TRACK 12 AUDIO
TITLE “Two For Tragedy”
PERFORMER “Nightwish”
INDEX 00 50:00:03
INDEX 01 50:03:03
TRACK 13 AUDIO
TITLE “A Return To The Sea”
PERFORMER “Nightwish”
INDEX 00 53:53:16
INDEX 01 53:56:16
TRACK 14 AUDIO
TITLE “Away”
PERFORMER “Nightwish”
INDEX 00 59:41:28
INDEX 01 59:44:28
TRACK 15 AUDIO
TITLE “Forever Yours”
PERFORMER “Nightwish”
INDEX 00 64:14:27
INDEX 01 64:17:27

Leave a Reply

Your email address will not be published. Required fields are marked *

This site uses Akismet to reduce spam. Learn how your comment data is processed.