Nightwish – Tales from the elvenpath




Artist: Nightwish
Year: 2004
Genre: Metal
Notes: Discogs
Add. Notes:
Encoder: FLAC
Bitrate: ~1000 kBit/s (44.1 kHz/16 Bit/s)
Size: 521,25 MB
Password: “slam” (without ” “)


Crypted via FileCrypt.cc:

.

Crypted via Relink.to:

Tracklist:

1 - Wishmaster - 4:24
2 - Sacrament Of Wilderness - 4:09
3 - End Of All Hope - 3:55
4 - Bless The Child - 6:12
5 - Sleeping Sun - 4:03
6 - She Is My Sin - 4:46
7 - Walking In The Air - 5:27
8 - Stargazers - 4:26
9 - Over The Hills And Far Away - 5:01
10 - The Kinslayer - 3:59
11 - Dead Boy's Poem - 6:48
Rare Tracks:
12 - Sleepwalker - 3:06
13 - Nightquest - 4:16
14 - Lagoon - 3:46
15 - Wayfarer - 3:22

EAC-Log, CUE-Sheed & NFO:

Click to open spoiler
Exact Audio Copy V0.99 prebeta 4 from 23. January 2008

Отчёт EAC об извлечении, выполненном 27. апреля 2009, 10:45

Nightwish / Tales From The Elvenpath

Дисковод: _NEC DVD_RW ND-3550A Adapter: 0 ID: 1

Режим чтения : Достоверность
Использование точного потока : Да
Отключение кэша аудио : Да
Использование указателей C2 : Нет

Коррекция смещения при чтении : 48
Способность читать области Lead-in и Lead-out : Нет
Заполнение пропущенных сэмплов тишиной : Да
Удаление блоков с тишиной в начале и конце : Нет
При вычислениях CRC использовались нулевые сэмплы : Да
Интерфейс : Установленный внешний ASPI-интерфейс

Выходной формат : Внутренние WAV-операции
Формат сэмплов : 44.100 Гц; 16 бит; стерео

TOC извлечённого CD

Трек | Старт | Длительность | Начальный сектор | Конечный сектор
———————————————————————
1 | 0:00.32 | 4:24.53 | 32 | 19884
2 | 4:25.10 | 4:09.40 | 19885 | 38599
3 | 8:34.50 | 3:55.07 | 38600 | 56231
4 | 12:29.57 | 6:12.55 | 56232 | 84186
5 | 18:42.37 | 4:03.08 | 84187 | 102419
6 | 22:45.45 | 4:46.12 | 102420 | 123881
7 | 27:31.57 | 5:27.46 | 123882 | 148452
8 | 32:59.28 | 4:26.42 | 148453 | 168444
9 | 37:25.70 | 5:01.27 | 168445 | 191046
10 | 42:27.22 | 3:59.35 | 191047 | 209006
11 | 46:26.57 | 6:48.50 | 209007 | 239656
12 | 53:15.32 | 3:06.50 | 239657 | 253656
13 | 56:22.07 | 4:16.05 | 253657 | 272861
14 | 60:38.12 | 3:46.23 | 272862 | 289834
15 | 64:24.35 | 3:22.35 | 289835 | 305019

Характеристики диапазона извлечения и сообщения об ошибках

Выбранный диапазон

Имя файла E:\Music\Nightwish Discography\The Best\2004 – Tales from the elvenpath (Drakkar)\Nightwish – Tales From The Elvenpath.wav

Пиковый уровень 99.8 %
Качество диапазона 100.0 %
CRC копии BE9D7D2C
Копирование… OK

Ошибок не произошло

AccurateRip: сводка

Трек 1 нет в базе данных
Трек 2 нет в базе данных
Трек 3 нет в базе данных
Трек 4 нет в базе данных
Трек 5 нет в базе данных
Трек 6 нет в базе данных
Трек 7 нет в базе данных
Трек 8 нет в базе данных
Трек 9 нет в базе данных
Трек 10 нет в базе данных
Трек 11 нет в базе данных
Трек 12 нет в базе данных
Трек 13 нет в базе данных
Трек 14 нет в базе данных
Трек 15 нет в базе данных

Ни одного трека нет в базе AccurateRip

Конец отчёта

REM GENRE “Symphonic Metal”
REM DATE 2004
REM DISCID EB0FE20F
REM COMMENT “ExactAudioCopy v0.99pb4”
PERFORMER “Nightwish”
TITLE “Tales From The Elvenpath”
FILE “Nightwish – Tales From The Elvenpath.flac” FLAC
TRACK 01 AUDIO
TITLE “Nightwish / Wishmaster”
PERFORMER “Nightwish”
INDEX 00 00:00:00
INDEX 01 00:00:32
TRACK 02 AUDIO
TITLE “Sacrament Of Wilderness”
PERFORMER “Nightwish”
INDEX 00 04:24:51
INDEX 01 04:25:10
TRACK 03 AUDIO
TITLE “End Of All Hope”
PERFORMER “Nightwish”
INDEX 01 08:34:50
TRACK 04 AUDIO
TITLE “Bless The Child”
PERFORMER “Nightwish”
INDEX 00 12:29:34
INDEX 01 12:29:57
TRACK 05 AUDIO
TITLE “Sleeping Sun”
PERFORMER “Nightwish”
INDEX 00 18:41:61
INDEX 01 18:42:37
TRACK 06 AUDIO
TITLE “She Is My Sin”
PERFORMER “Nightwish”
INDEX 00 22:44:65
INDEX 01 22:45:45
TRACK 07 AUDIO
TITLE “Walkin In The Air”
PERFORMER “Nightwish”
INDEX 01 27:31:57
TRACK 08 AUDIO
TITLE “Stargazers”
PERFORMER “Nightwish”
INDEX 00 32:57:57
INDEX 01 32:59:28
TRACK 09 AUDIO
TITLE “Over The Hills And Far Away”
PERFORMER “Nightwish”
INDEX 00 37:25:48
INDEX 01 37:25:70
TRACK 10 AUDIO
TITLE “The Kinslayer”
PERFORMER “Nightwish”
INDEX 00 42:27:11
INDEX 01 42:27:22
TRACK 11 AUDIO
TITLE “Dead Boy’s Poem”
PERFORMER “Nightwish”
INDEX 00 46:26:08
INDEX 01 46:26:57
TRACK 12 AUDIO
TITLE “Sleepwalker”
PERFORMER “Nightwish”
INDEX 00 53:14:10
INDEX 01 53:15:32
TRACK 13 AUDIO
TITLE “Nightquest”
PERFORMER “Nightwish”
INDEX 00 56:21:15
INDEX 01 56:22:07
TRACK 14 AUDIO
TITLE “Lagoon”
PERFORMER “Nightwish”
INDEX 00 60:37:24
INDEX 01 60:38:12
TRACK 15 AUDIO
TITLE “Wayfarer”
PERFORMER “Nightwish”
INDEX 00 64:23:48
INDEX 01 64:24:35

Leave a Reply

Your email address will not be published. Required fields are marked *

This site uses Akismet to reduce spam. Learn how your comment data is processed.