Nightwish – Once (Korean Special Edition)




Artist: Nightwish
Year: 2004
Genre: Metal
Notes: Discogs
Add. Notes: Korean Special Edition
Cover incl.: Yes
Encoder: FLAC
Bitrate: ~1000 kBit/s (44.1 kHz/16 Bit/s)
Log & Cue incl.: Yes/Yes
Size: 484,8 MB
Password: “slam” (without ” “)


All Downloads/Hosters are compatible

Download 1
KatFile.com
Turbobit.net
FileFactory.com
Rapidgator.net
Download 2
KatFile.com
Turbobit.net
FileFactory.com
Rapidgator.net

Tracklist:

1-1 - Dark Chest Of Wonders - 4:28
1-2 - Wish I Had An Angel - 4:03
1-3 - Nemo - 4:36
1-4 - Planet Hell - 4:39
1-5 - Creek Mary's Blood - 8:29
1-6 - The Siren - 4:45
1-7 - Dead Gardens - 4:26
1-8 - Romanticide - 4:57
1-9 - Ghost Love Score - 10:00
1-10 - Kuolema Tekee Taiteilijan - 3:59
1-11 - Higher Than Hope - 5:35
Bonus Tracks
2-1 - Where Were You Last Night - 3:53
2-2 - Wish I Had An Angel (Demo Version) - 4:08

EAC-Log, CUE-Sheed & NFO:

Click to open spoiler
Exact Audio Copy V0.99 prebeta 4 from 23. January 2008

Отчёт EAC об извлечении, выполненном 29. апреля 2009, 20:55

Nightwish / Once CD1

Дисковод: _NEC DVD_RW ND-3550A Adapter: 0 ID: 1

Режим чтения : Достоверность
Использование точного потока : Да
Отключение кэша аудио : Да
Использование указателей C2 : Нет

Коррекция смещения при чтении : 48
Способность читать области Lead-in и Lead-out : Нет
Заполнение пропущенных сэмплов тишиной : Да
Удаление блоков с тишиной в начале и конце : Нет
При вычислениях CRC использовались нулевые сэмплы : Да
Интерфейс : Установленный внешний ASPI-интерфейс

Выходной формат : Внутренние WAV-операции
Формат сэмплов : 44.100 Гц; 16 бит; стерео

TOC извлечённого CD

Трек | Старт | Длительность | Начальный сектор | Конечный сектор
———————————————————————
1 | 0:00.00 | 4:28.54 | 0 | 20153
2 | 4:28.54 | 4:05.73 | 20154 | 38601
3 | 8:34.52 | 4:36.15 | 38602 | 59316
4 | 13:10.67 | 4:38.57 | 59317 | 80223
5 | 17:49.49 | 8:29.37 | 80224 | 118435
6 | 26:19.11 | 4:45.17 | 118436 | 139827
7 | 31:04.28 | 4:28.08 | 139828 | 159935
8 | 35:32.36 | 4:58.12 | 159936 | 182297
9 | 40:30.48 | 10:02.06 | 182298 | 227453
10 | 50:32.54 | 3:58.38 | 227454 | 245341
11 | 54:31.17 | 5:35.09 | 245342 | 270475

Характеристики диапазона извлечения и сообщения об ошибках

Выбранный диапазон

Имя файла E:\Music\Nightwish Discography\Albums\2004 – Once (Korean Special Version)\CD1\Nightwish – Once CD1.wav

Пиковый уровень 97.7 %
Качество диапазона 100.0 %
CRC копии C346A9BD
Копирование… OK

Ошибок не произошло

AccurateRip: сводка

Трек 1 точность не определена (достоверность 175) [B0833C4F], AccurateRip вернул [70581D9D]
Трек 2 точность не определена (достоверность 176) [408488FA], AccurateRip вернул [EDF9FFB4]
Трек 3 точность не определена (достоверность 178) [0D465632], AccurateRip вернул [29D27C00]
Трек 4 точность не определена (достоверность 175) [7C4DAF42], AccurateRip вернул [1FF15AC3]
Трек 5 точность не определена (достоверность 175) [3DB63B77], AccurateRip вернул [C5C9561D]
Трек 6 точность не определена (достоверность 177) [5A879D38], AccurateRip вернул [B197830F]
Трек 7 точность не определена (достоверность 174) [C941F1B8], AccurateRip вернул [F730B1B8]
Трек 8 точность не определена (достоверность 172) [4AF9B8FB], AccurateRip вернул [2D17F5B3]
Трек 9 точность не определена (достоверность 175) [B0AF45E9], AccurateRip вернул [DC3F13ED]
Трек 10 точность не определена (достоверность 176) [63DDC242], AccurateRip вернул [499A03E9]
Трек 11 точность не определена (достоверность 175) [690F8AC1], AccurateRip вернул [660AC99A]

Ни один трек не прошёл проверки на точность
В вашей базе может быть иной вариант штамповки диска

Конец отчёта

Exact Audio Copy V0.99 prebeta 4 from 23. January 2008

Отчёт EAC об извлечении, выполненном 29. апреля 2009, 20:41

Nightwish / Once CD2

Дисковод: _NEC DVD_RW ND-3550A Adapter: 0 ID: 1

Режим чтения : Достоверность
Использование точного потока : Да
Отключение кэша аудио : Да
Использование указателей C2 : Нет

Коррекция смещения при чтении : 48
Способность читать области Lead-in и Lead-out : Нет
Заполнение пропущенных сэмплов тишиной : Да
Удаление блоков с тишиной в начале и конце : Нет
При вычислениях CRC использовались нулевые сэмплы : Да
Интерфейс : Установленный внешний ASPI-интерфейс

Выходной формат : Внутренние WAV-операции
Формат сэмплов : 44.100 Гц; 16 бит; стерео

TOC извлечённого CD

Трек | Старт | Длительность | Начальный сектор | Конечный сектор
———————————————————————
1 | 0:00.00 | 3:52.70 | 0 | 17469
2 | 3:52.70 | 4:08.47 | 17470 | 36116

Характеристики диапазона извлечения и сообщения об ошибках

Выбранный диапазон

Имя файла E:\Music\Nightwish Discography\Albums\2004 – Once (Korean Special Version)\CD2\Nightwish – Once CD2.wav

Пиковый уровень 96.2 %
Качество диапазона 100.0 %
CRC копии 9877FAD3
Копирование… OK

Ошибок не произошло

AccurateRip: сводка

Трек 1 нет в базе данных
Трек 2 нет в базе данных

Ни одного трека нет в базе AccurateRip

Конец отчёта

REM GENRE “Symphonic Rock”
REM DATE 2004
REM DISCID 840E160B
REM COMMENT “ExactAudioCopy v0.99pb4”
PERFORMER “Nightwish”
TITLE “Once CD1”
FILE “Nightwish – Once CD1.flac” FLAC
TRACK 01 AUDIO
TITLE “Dark Chest of Wonders”
PERFORMER “Nightwish”
INDEX 01 00:00:00
TRACK 02 AUDIO
TITLE “Wish I had an Angel”
PERFORMER “Nightwish”
INDEX 00 04:28:53
INDEX 01 04:28:54
TRACK 03 AUDIO
TITLE “Nemo”
PERFORMER “Nightwish”
INDEX 00 08:31:38
INDEX 01 08:34:52
TRACK 04 AUDIO
TITLE “Planet hell”
PERFORMER “Nightwish”
INDEX 01 13:10:67
TRACK 05 AUDIO
TITLE “Creek Mary’s Blood”
PERFORMER “Nightwish”
INDEX 00 17:49:47
INDEX 01 17:49:49
TRACK 06 AUDIO
TITLE “The Siren”
PERFORMER “Nightwish”
INDEX 00 26:19:07
INDEX 01 26:19:11
TRACK 07 AUDIO
TITLE “Dead Gardens”
PERFORMER “Nightwish”
INDEX 01 31:04:28
TRACK 08 AUDIO
TITLE “Romanticide”
PERFORMER “Nightwish”
INDEX 00 35:30:09
INDEX 01 35:32:36
TRACK 09 AUDIO
TITLE “Ghost Love Score”
PERFORMER “Nightwish”
INDEX 00 40:29:03
INDEX 01 40:30:48
TRACK 10 AUDIO
TITLE “Kuolema Tekee Taiteilijan”
PERFORMER “Nightwish”
INDEX 00 50:30:55
INDEX 01 50:32:54
TRACK 11 AUDIO
TITLE “Higher Than Hope”
PERFORMER “Nightwish”
INDEX 00 54:06:56
INDEX 01 54:31:17

REM GENRE “Symphonic Rock”
REM DATE 2004
REM DISCID 0B01E102
REM COMMENT “ExactAudioCopy v0.99pb4”
PERFORMER “Nightwish”
TITLE “Once CD2”
FILE “Nightwish – Once CD2.flac” FLAC
TRACK 01 AUDIO
TITLE “Where Were You Last Night”
PERFORMER “Nightwish”
INDEX 01 00:00:00
TRACK 02 AUDIO
TITLE “Wish I Had An Angel (demo version)”
PERFORMER “Nightwish”
INDEX 00 03:52:69
INDEX 01 03:52:70


Leave a Reply

Your email address will not be published. Required fields are marked *

Enter the text from the image below
 

This site uses Akismet to reduce spam. Learn how your comment data is processed.