Nightwish – Oceanborn




Artist: Nightwish
Year: 1998
Genre: Rock
Notes: Discogs
Add. Notes:
Encoder: FLAC
Bitrate: ~1000 kBit/s (44.1 kHz/16 Bit/s)
Size: 392,83 MB
Password: “slam” (without ” “)


Crypted via FileCrypt.cc:

.

Crypted via Relink.to:

Tracklist:

1 - Stargazers - 4:27
2 - Gethsemane - 5:21
3 - Devil & The Deep Dark Ocean - 4:46
4 - Sacrament Of Wilderness - 4:12
5 - Passion And The Opera - 4:58
6 - Swanheart - 4:44
7 - Moondance - 3:31
8 - The Riddler - 5:16
9 - The Pharaoh Sails To Orion - 6:27
10 - Walking In The Air - 5:28
11 - Sleeping Sun - 4:01

EAC-Log, CUE-Sheed & NFO:

Click to open spoiler
Exact Audio Copy V0.99 prebeta 4 from 23. January 2008

Отчёт EAC об извлечении, выполненном 27. апреля 2009, 16:39

Nightwish / Oceanborn

Дисковод: _NEC DVD_RW ND-3550A Adapter: 0 ID: 1

Режим чтения : Достоверность
Использование точного потока : Да
Отключение кэша аудио : Да
Использование указателей C2 : Нет

Коррекция смещения при чтении : 48
Способность читать области Lead-in и Lead-out : Нет
Заполнение пропущенных сэмплов тишиной : Да
Удаление блоков с тишиной в начале и конце : Нет
При вычислениях CRC использовались нулевые сэмплы : Да
Интерфейс : Установленный внешний ASPI-интерфейс

Выходной формат : Внутренние WAV-операции
Формат сэмплов : 44.100 Гц; 16 бит; стерео

TOC извлечённого CD

Трек | Старт | Длительность | Начальный сектор | Конечный сектор
———————————————————————
1 | 0:00.32 | 4:28.35 | 32 | 20166
2 | 4:28.67 | 5:21.73 | 20167 | 44314
3 | 9:50.65 | 4:46.07 | 44315 | 65771
4 | 14:36.72 | 4:12.03 | 65772 | 84674
5 | 18:49.00 | 4:50.52 | 84675 | 106476
6 | 23:39.52 | 4:44.55 | 106477 | 127831
7 | 28:24.32 | 3:31.35 | 127832 | 143691
8 | 31:55.67 | 5:16.08 | 143692 | 167399
9 | 37:12.00 | 6:26.70 | 167400 | 196419
10 | 43:38.70 | 5:28.12 | 196420 | 221031
11 | 49:07.07 | 4:02.25 | 221032 | 239206

Характеристики диапазона извлечения и сообщения об ошибках

Выбранный диапазон

Имя файла E:\Music\Nightwish Discography\Albums\1998 – Oceanborn (Drakkar)\Nightwish – Oceanborn.wav

Пиковый уровень 98.8 %
Качество диапазона 100.0 %
CRC копии 16D503B8
Копирование… OK

Ошибок не произошло

AccurateRip: сводка

Трек 1 точное извлечение (доверие 48) [FAEDD1FB]
Трек 2 точное извлечение (доверие 47) [FD6898D5]
Трек 3 точное извлечение (доверие 47) [C47FB3A0]
Трек 4 точное извлечение (доверие 47) [DA9779F2]
Трек 5 точное извлечение (доверие 47) [253A932D]
Трек 6 точное извлечение (доверие 47) [910F3339]
Трек 7 точное извлечение (доверие 47) [99F9238C]
Трек 8 точное извлечение (доверие 47) [CCB3B8FD]
Трек 9 точное извлечение (доверие 47) [B82225AA]
Трек 10 точное извлечение (доверие 48) [3467F49D]
Трек 11 точное извлечение (доверие 48) [A333E7F9]

Все треки извлечены точно

Конец отчёта
REM GENRE “Gothic Rock”
REM DATE 1998
REM DISCID 8D0C750B
REM COMMENT “ExactAudioCopy v0.99pb4”
PERFORMER “Nightwish”
TITLE “Oceanborn”
FILE “Nightwish – Oceanborn.flac” FLAC
TRACK 01 AUDIO
TITLE “Stargazers”
PERFORMER “Nightwish”
INDEX 00 00:00:00
INDEX 01 00:00:32
TRACK 02 AUDIO
TITLE “Gethsemane”
PERFORMER “Nightwish”
INDEX 00 04:27:23
INDEX 01 04:28:67
TRACK 03 AUDIO
TITLE “Devil & The Deep Dark Ocean”
PERFORMER “Nightwish”
INDEX 00 09:49:39
INDEX 01 09:50:65
TRACK 04 AUDIO
TITLE “Sacrament Of Wilderness”
PERFORMER “Nightwish”
INDEX 00 14:36:44
INDEX 01 14:36:72
TRACK 05 AUDIO
TITLE “Passion And The Opera”
PERFORMER “Nightwish”
INDEX 00 18:46:37
INDEX 01 18:49:00
TRACK 06 AUDIO
TITLE “Swanheart”
PERFORMER “Nightwish”
INDEX 00 23:37:63
INDEX 01 23:39:52
TRACK 07 AUDIO
TITLE “Moondance”
PERFORMER “Nightwish”
INDEX 01 28:24:32
TRACK 08 AUDIO
TITLE “The Riddler”
PERFORMER “Nightwish”
INDEX 00 31:55:63
INDEX 01 31:55:67
TRACK 09 AUDIO
TITLE “The Pharao Sails To Orion”
PERFORMER “Nightwish”
INDEX 00 37:11:10
INDEX 01 37:12:00
TRACK 10 AUDIO
TITLE “Walkin In The Air”
PERFORMER “Nightwish”
INDEX 00 43:38:64
INDEX 01 43:38:70
TRACK 11 AUDIO
TITLE “Sleeping Sun”
PERFORMER “Nightwish”
INDEX 00 49:06:13
INDEX 01 49:07:07

Leave a Reply

Your email address will not be published. Required fields are marked *

This site uses Akismet to reduce spam. Learn how your comment data is processed.