Nightwish – Highest Hopes (The Best Of Nightwish)




Artist: Nightwish
Year: 2005
Genre: Metal
Notes: Discogs
Add. Notes:
Cover incl.: Yes
Encoder: FLAC
Bitrate: ~1000 kBit/s (44.1 kHz/16 Bit/s)
Log & Cue incl.: Yes/Yes
Size: 829 MB
Password: “slam” (without ” “)


All Downloads/Hosters are compatible

Download 1
KatFile.com
Turbobit.net
FileFactory.com
Rapidgator.net
Download 2
KatFile.com
Turbobit.net
FileFactory.com
Rapidgator.net

Tracklist:

1 - Wish I Had An Angel - 4:04
2 - Stargazers - 4:26
3 - The Kinslayer - 4:01
4 - Ever Dream - 4:44
5 - Elvenpath - 4:38
6 - Bless The Child - 6:12
7 - Nemo - 4:35
8 - Sleeping Sun (2005 Version) - 4:24
9 - Dead To The World - 4:19
10 - Over The Hills And Far Away - 5:00
11 - Deep Silent Complete - 3:57
12 - Sacrament Of Wilderness - 4:10
13 - Walking In The Air - 5:27
14 - Wishmaster - 4:23
15 - Dead Boy's Poem - 6:48
16 - High Hopes (Live) - 7:20

EAC-Log, CUE-Sheed & NFO:

Click to open spoiler
Exact Audio Copy V0.99 prebeta 4 from 23. January 2008

Отчёт EAC об извлечении, выполненном 27. апреля 2009, 21:20

Nightwish / Highest Hopes – The Best Of Nightwish CD1

Дисковод: _NEC DVD_RW ND-3550A Adapter: 0 ID: 1

Режим чтения : Достоверность
Использование точного потока : Да
Отключение кэша аудио : Да
Использование указателей C2 : Нет

Коррекция смещения при чтении : 48
Способность читать области Lead-in и Lead-out : Нет
Заполнение пропущенных сэмплов тишиной : Да
Удаление блоков с тишиной в начале и конце : Нет
При вычислениях CRC использовались нулевые сэмплы : Да
Интерфейс : Установленный внешний ASPI-интерфейс

Выходной формат : Внутренние WAV-операции
Формат сэмплов : 44.100 Гц; 16 бит; стерео

TOC извлечённого CD

Трек | Старт | Длительность | Начальный сектор | Конечный сектор
———————————————————————
1 | 0:00.00 | 4:04.22 | 0 | 18321
2 | 4:04.22 | 4:26.08 | 18322 | 38279
3 | 8:30.30 | 4:01.42 | 38280 | 56396
4 | 12:31.72 | 4:44.11 | 56397 | 77707
5 | 17:16.08 | 4:38.24 | 77708 | 98581
6 | 21:54.32 | 6:12.23 | 98582 | 126504
7 | 28:06.55 | 4:35.19 | 126505 | 147148
8 | 32:41.74 | 4:03.63 | 147149 | 165436
9 | 36:45.62 | 4:19.27 | 165437 | 184888
10 | 41:05.14 | 5:00.24 | 184889 | 207412
11 | 46:05.38 | 3:57.03 | 207413 | 225190
12 | 50:02.41 | 4:10.47 | 225191 | 243987
13 | 54:13.13 | 5:27.14 | 243988 | 268526
14 | 59:40.27 | 4:23.23 | 268527 | 288274
15 | 64:03.50 | 6:48.37 | 288275 | 318911
16 | 70:52.12 | 7:20.32 | 318912 | 351943

Характеристики диапазона извлечения и сообщения об ошибках

Выбранный диапазон

Имя файла E:\Music\Nightwish Discography\The Best\2005 – Highest Hopes (Spinefarm)\CD1\Nightwish – Highest Hopes – The Best Of Nightwish CD1.wav

Пиковый уровень 95.5 %
Качество диапазона 100.0 %
CRC копии 5CA23B4C
Копирование… OK

Ошибок не произошло

AccurateRip: сводка

Трек 1 нет в базе данных
Трек 2 нет в базе данных
Трек 3 нет в базе данных
Трек 4 нет в базе данных
Трек 5 нет в базе данных
Трек 6 нет в базе данных
Трек 7 нет в базе данных
Трек 8 нет в базе данных
Трек 9 нет в базе данных
Трек 10 нет в базе данных
Трек 11 нет в базе данных
Трек 12 нет в базе данных
Трек 13 нет в базе данных
Трек 14 нет в базе данных
Трек 15 нет в базе данных
Трек 16 нет в базе данных

Ни одного трека нет в базе AccurateRip

Конец отчёта

Exact Audio Copy V0.99 prebeta 4 from 23. January 2008

Отчёт EAC об извлечении, выполненном 27. апреля 2009, 21:30

Nightwish / Highest Hopes: The Best Of Nightwish CD2

Дисковод: _NEC DVD_RW ND-3550A Adapter: 0 ID: 1

Режим чтения : Достоверность
Использование точного потока : Да
Отключение кэша аудио : Да
Использование указателей C2 : Нет

Коррекция смещения при чтении : 48
Способность читать области Lead-in и Lead-out : Нет
Заполнение пропущенных сэмплов тишиной : Да
Удаление блоков с тишиной в начале и конце : Нет
При вычислениях CRC использовались нулевые сэмплы : Да
Интерфейс : Установленный внешний ASPI-интерфейс

Выходной формат : Внутренние WAV-операции
Формат сэмплов : 44.100 Гц; 16 бит; стерео

TOC извлечённого CD

Трек | Старт | Длительность | Начальный сектор | Конечный сектор
———————————————————————
1 | 0:00.00 | 3:25.17 | 0 | 15391
2 | 3:25.17 | 4:52.72 | 15392 | 37363
3 | 8:18.14 | 6:48.58 | 37364 | 68021
4 | 15:06.72 | 5:18.02 | 68022 | 91873
5 | 20:24.74 | 5:49.03 | 91874 | 118051
6 | 26:14.02 | 3:07.72 | 118052 | 132148
7 | 29:21.74 | 4:18.34 | 132149 | 151532
8 | 33:40.33 | 3:45.05 | 151533 | 168412

Характеристики диапазона извлечения и сообщения об ошибках

Выбранный диапазон

Имя файла E:\Music\Nightwish Discography\The Best\2005 – Highest Hopes (Spinefarm)\CD2\Nightwish – Highest Hopes The Best Of Nightwish CD2.wav

Пиковый уровень 93.3 %
Качество диапазона 100.0 %
CRC копии D6E28086
Копирование… OK

Ошибок не произошло

AccurateRip: сводка

Трек 1 точное извлечение (доверие 8) [79C82463]
Трек 2 точное извлечение (доверие 8) [41B5BFF7]
Трек 3 точное извлечение (доверие 8) [CFEB43E0]
Трек 4 точное извлечение (доверие 8) [A3A0CA3F]
Трек 5 точное извлечение (доверие 8) [4CD4D0F4]
Трек 6 точное извлечение (доверие 8) [AD8025D3]
Трек 7 точное извлечение (доверие 8) [0307364F]
Трек 8 точное извлечение (доверие 7) [8F359AC9]

Все треки извлечены точно

Конец отчёта

REM GENRE “Gothic Rock”
REM DATE 2005
REM DISCID E5125410
REM COMMENT “ExactAudioCopy v0.99pb4”
PERFORMER “Nightwish”
TITLE “Highest Hopes – The Best Of Nightwish CD1”
FILE “Nightwish – Highest Hopes – The Best Of Nightwish CD1.flac” FLAC
TRACK 01 AUDIO
TITLE “Wish I Had An Angel”
PERFORMER “Nightwish”
INDEX 01 00:00:00
TRACK 02 AUDIO
TITLE “Stargazers”
PERFORMER “Nightwish”
INDEX 00 04:03:12
INDEX 01 04:04:22
TRACK 03 AUDIO
TITLE “The Kinslayer”
PERFORMER “Nightwish”
INDEX 01 08:30:30
TRACK 04 AUDIO
TITLE “Ever Dream”
PERFORMER “Nightwish”
INDEX 00 12:29:33
INDEX 01 12:31:72
TRACK 05 AUDIO
TITLE “Elvenpath”
PERFORMER “Nightwish”
INDEX 01 17:16:08
TRACK 06 AUDIO
TITLE “Bless The Child”
PERFORMER “Nightwish”
INDEX 01 21:54:32
TRACK 07 AUDIO
TITLE “Nemo”
PERFORMER “Nightwish”
INDEX 01 28:06:55
TRACK 08 AUDIO
TITLE “Sleeping Sun (2005 version)”
PERFORMER “Nightwish”
INDEX 00 32:40:29
INDEX 01 32:41:74
TRACK 09 AUDIO
TITLE “Dead To The World”
PERFORMER “Nightwish”
INDEX 00 36:45:50
INDEX 01 36:45:62
TRACK 10 AUDIO
TITLE “Over The Hills And Far Away”
PERFORMER “Nightwish”
INDEX 01 41:05:14
TRACK 11 AUDIO
TITLE “Deep Silent Complete”
PERFORMER “Nightwish”
INDEX 01 46:05:38
TRACK 12 AUDIO
TITLE “Sacrament Of Wilderness”
PERFORMER “Nightwish”
INDEX 01 50:02:41
TRACK 13 AUDIO
TITLE “Walking In The Air”
PERFORMER “Nightwish”
INDEX 00 54:12:13
INDEX 01 54:13:13
TRACK 14 AUDIO
TITLE “Wishmaster”
PERFORMER “Nightwish”
INDEX 00 59:40:26
INDEX 01 59:40:27
TRACK 15 AUDIO
TITLE “Dead Boy’s Poem”
PERFORMER “Nightwish”
INDEX 01 64:03:50
TRACK 16 AUDIO
TITLE “High Hopes”
PERFORMER “Nightwish”
INDEX 00 70:51:19
INDEX 01 70:52:12

REM GENRE Metal
REM DATE 2005
REM DISCID 5608C508
REM COMMENT “ExactAudioCopy v0.99pb4”
PERFORMER “Nightwish”
TITLE “Highest Hopes: The Best Of Nightwish CD2”
FILE “Nightwish – Highest Hopes The Best Of Nightwish CD2.flac” FLAC
TRACK 01 AUDIO
TITLE “The Wayfarer”
PERFORMER “Nightwish”
INDEX 01 00:00:00
TRACK 02 AUDIO
TITLE “Come Cover Me [Live]”
PERFORMER “Nightwish”
INDEX 01 03:25:17
TRACK 03 AUDIO
TITLE “Dead Boy’s Poem [Live]”
PERFORMER “Nightwish”
INDEX 00 08:15:21
INDEX 01 08:18:14
TRACK 04 AUDIO
TITLE “Once Upon A Troubadour”
PERFORMER “Nightwish”
INDEX 00 15:04:21
INDEX 01 15:06:72
TRACK 05 AUDIO
TITLE “A Return To The Sea”
PERFORMER “Nightwish”
INDEX 00 20:22:22
INDEX 01 20:24:74
TRACK 06 AUDIO
TITLE “Sleepwalker [Heavy Version]”
PERFORMER “Nightwish”
INDEX 00 26:11:28
INDEX 01 26:14:02
TRACK 07 AUDIO
TITLE “Nightquest”
PERFORMER “Nightwish”
INDEX 00 29:19:28
INDEX 01 29:21:74
TRACK 08 AUDIO
TITLE “Lagoon”
PERFORMER “Nightwish”
INDEX 00 33:37:02
INDEX 01 33:40:33


Leave a Reply

Your email address will not be published. Required fields are marked *

This site uses Akismet to reduce spam. Learn how your comment data is processed.