Nightwish – Dark Passion Play




Artist: Nightwish
Year: 2007
Genre: Metal
Notes: Discogs
Add. Notes:
Encoder: FLAC
Bitrate: ~900 kBit/s (VBR)
Size: 1094,73 MB
Password: “slam” (without ” “)


Crypted via FileCrypt.cc:

.

Crypted via Relink.to:

Tracklist:

1-1 - The Poet And The Pendulum - 13:53
1-2 - Bye Bye Beautiful - 4:15
1-3 - Amaranth - 3:51
1-4 - Cadence Of Her Last Breath - 4:15
1-5 - Master Passion Greed - 5:58
1-6 - Eva - 4:26
1-7 - Sahara - 5:46
1-8 - Whoever Brings The Night - 4:16
1-9 - For The Heart I Once Had - 3:56
1-10 - The Islander - 5:06
1-11 - Last Of The Wilds - 5:41
1-12 - 7 Days To The Wolves - 7:03
1-13 - Meadows Of Heaven - 7:10
	Instrumental Version
2-1 - The Poet And The Pendulum - 13:54
2-2 - Bye Bye Beautiful - 4:14
2-3 - Amaranth - 3:51
2-4 - Cadence Of Her Last Breath - 4:14
2-5 - Master Passion Greed - 6:02
2-6 - Eva - 4:25
2-7 - Sahara - 5:47
2-8 - Whoever Brings The Night - 4:17
2-9 - For The Heart I Once Had - 3:56
2-10 - The Islander - 5:05
2-11 - Last Of The Wilds - 5:40
2-12 - 7 Days To The Wolves - 7:04
2-13 - Meadows Of Heaven - 7:09

EAC-Log, CUE-Sheed & NFO:

Click to open spoiler
Exact Audio Copy V0.99 prebeta 4 from 23. January 2008

Отчёт EAC об извлечении, выполненном 27. апреля 2009, 18:04

Nightwish / Dark Passion Play CD1

Дисковод: _NEC DVD_RW ND-3550A Adapter: 0 ID: 1

Режим чтения : Достоверность
Использование точного потока : Да
Отключение кэша аудио : Да
Использование указателей C2 : Нет

Коррекция смещения при чтении : 48
Способность читать области Lead-in и Lead-out : Нет
Заполнение пропущенных сэмплов тишиной : Да
Удаление блоков с тишиной в начале и конце : Нет
При вычислениях CRC использовались нулевые сэмплы : Да
Интерфейс : Установленный внешний ASPI-интерфейс

Выходной формат : Внутренние WAV-операции
Формат сэмплов : 44.100 Гц; 16 бит; стерео

TOC извлечённого CD

Трек | Старт | Длительность | Начальный сектор | Конечный сектор
———————————————————————
1 | 0:00.00 | 13:54.48 | 0 | 62597
2 | 13:54.48 | 4:14.42 | 62598 | 81689
3 | 18:09.15 | 3:51.30 | 81690 | 99044
4 | 22:00.45 | 4:14.67 | 99045 | 118161
5 | 26:15.37 | 6:02.57 | 118162 | 145368
6 | 32:18.19 | 4:25.54 | 145369 | 165297
7 | 36:43.73 | 5:47.27 | 165298 | 191349
8 | 42:31.25 | 4:17.62 | 191350 | 210686
9 | 46:49.12 | 3:55.73 | 210687 | 228384
10 | 50:45.10 | 5:05.69 | 228385 | 251328
11 | 55:51.04 | 5:40.50 | 251329 | 276878
12 | 61:31.54 | 7:03.70 | 276879 | 308673
13 | 68:35.49 | 7:10.04 | 308674 | 340927

Характеристики диапазона извлечения и сообщения об ошибках

Выбранный диапазон

Имя файла E:\Music\Nightwish Discography\Albums\2007 – Dark Passion Play (Spinefarm)\CD1\Nightwish – Dark Passion Play CD1.wav

Пиковый уровень 97.7 %
Качество диапазона 100.0 %
CRC копии 6E001701
Копирование… OK

Ошибок не произошло

AccurateRip: сводка

Трек 1 точное извлечение (доверие 29) [F6ECBCFB]
Трек 2 точное извлечение (доверие 29) [41F0FF98]
Трек 3 точное извлечение (доверие 30) [F0D38011]
Трек 4 точное извлечение (доверие 29) [C1E5B957]
Трек 5 точное извлечение (доверие 29) [FD446636]
Трек 6 точное извлечение (доверие 29) [8F288A28]
Трек 7 точное извлечение (доверие 29) [39A13B0C]
Трек 8 точное извлечение (доверие 29) [BD606C7F]
Трек 9 точное извлечение (доверие 29) [AA069FCB]
Трек 10 точное извлечение (доверие 29) [9B85865B]
Трек 11 точное извлечение (доверие 29) [38D7B7AD]
Трек 12 точное извлечение (доверие 28) [600EADB8]
Трек 13 точное извлечение (доверие 27) [F4E06CC8]

Все треки извлечены точно

Конец отчёта

Exact Audio Copy V0.99 prebeta 4 from 23. January 2008

Отчёт EAC об извлечении, выполненном 27. апреля 2009, 19:06

Nightwish / Dark Passion Play CD2

Дисковод: _NEC DVD_RW ND-3550A Adapter: 0 ID: 1

Режим чтения : Достоверность
Использование точного потока : Да
Отключение кэша аудио : Да
Использование указателей C2 : Нет

Коррекция смещения при чтении : 48
Способность читать области Lead-in и Lead-out : Нет
Заполнение пропущенных сэмплов тишиной : Да
Удаление блоков с тишиной в начале и конце : Нет
При вычислениях CRC использовались нулевые сэмплы : Да
Интерфейс : Установленный внешний ASPI-интерфейс

Выходной формат : Внутренние WAV-операции
Формат сэмплов : 44.100 Гц; 16 бит; стерео

TOC извлечённого CD

Трек | Старт | Длительность | Начальный сектор | Конечный сектор
———————————————————————
1 | 0:00.00 | 13:54.46 | 0 | 62595
2 | 13:54.46 | 4:14.27 | 62596 | 81672
3 | 18:08.73 | 3:51.59 | 81673 | 99056
4 | 22:00.57 | 4:14.55 | 99057 | 118161
5 | 26:15.37 | 6:02.32 | 118162 | 145343
6 | 32:17.69 | 4:25.54 | 145344 | 165272
7 | 36:43.48 | 5:47.26 | 165273 | 191323
8 | 42:30.74 | 4:17.49 | 191324 | 210647
9 | 46:48.48 | 3:56.01 | 210648 | 228348
10 | 50:44.49 | 5:05.69 | 228349 | 251292
11 | 55:50.43 | 5:40.49 | 251293 | 276841
12 | 61:31.17 | 7:04.56 | 276842 | 308697
13 | 68:35.73 | 7:09.31 | 308698 | 340903

Характеристики диапазона извлечения и сообщения об ошибках

Выбранный диапазон

Имя файла E:\Music\Nightwish Discography\Albums\2007 – Dark Passion Play (Spinefarm)\CD2\Nightwish – Dark Passion Play CD2.wav

Пиковый уровень 97.7 %
Качество диапазона 99.9 %
CRC копии 8E61BEEE
Копирование… OK

Ошибок не произошло

AccurateRip: сводка

Трек 1 точное извлечение (доверие 14) [C84E64CF]
Трек 2 точное извлечение (доверие 14) [01D560CF]
Трек 3 точное извлечение (доверие 14) [AE7A0D32]
Трек 4 точное извлечение (доверие 14) [6B46648E]
Трек 5 точное извлечение (доверие 14) [1CB72AD7]
Трек 6 точное извлечение (доверие 14) [70CFAD98]
Трек 7 точное извлечение (доверие 14) [D2FF3CF2]
Трек 8 точное извлечение (доверие 14) [E3F9368B]
Трек 9 точное извлечение (доверие 14) [38502B0B]
Трек 10 точное извлечение (доверие 14) [51213D26]
Трек 11 точное извлечение (доверие 14) [7F525975]
Трек 12 точное извлечение (доверие 13) [4B3910CA]
Трек 13 точное извлечение (доверие 13) [1F64D731]

Все треки извлечены точно

Конец отчёта

REM GENRE “Gothic Metal”
REM DATE 2007
REM DISCID AA11C10D
REM COMMENT “ExactAudioCopy v0.99pb4”
PERFORMER “Nightwish”
TITLE “Dark Passion Play CD1”
FILE “Nightwish – Dark Passion Play CD1.flac” FLAC
TRACK 01 AUDIO
TITLE “The Poet And The Pendulum”
PERFORMER “Nightwish”
INDEX 01 00:00:00
TRACK 02 AUDIO
TITLE “Bye Bye Beautiful”
PERFORMER “Nightwish”
INDEX 01 13:54:48
TRACK 03 AUDIO
TITLE “Amaranth”
PERFORMER “Nightwish”
INDEX 00 18:09:10
INDEX 01 18:09:15
TRACK 04 AUDIO
TITLE “Cadence Of Her Last Breath”
PERFORMER “Nightwish”
INDEX 00 22:00:34
INDEX 01 22:00:45
TRACK 05 AUDIO
TITLE “Master Passion Greed”
PERFORMER “Nightwish”
INDEX 00 26:15:32
INDEX 01 26:15:37
TRACK 06 AUDIO
TITLE “Eva”
PERFORMER “Nightwish”
INDEX 01 32:18:19
TRACK 07 AUDIO
TITLE “Sahara”
PERFORMER “Nightwish”
INDEX 00 36:43:62
INDEX 01 36:43:73
TRACK 08 AUDIO
TITLE “Whoever Brings The Night”
PERFORMER “Nightwish”
INDEX 01 42:31:25
TRACK 09 AUDIO
TITLE “For The Heart I Once Had”
PERFORMER “Nightwish”
INDEX 01 46:49:12
TRACK 10 AUDIO
TITLE “The Islander”
PERFORMER “Nightwish”
INDEX 01 50:45:10
TRACK 11 AUDIO
TITLE “Last Of The Wilds”
PERFORMER “Nightwish”
INDEX 00 55:50:68
INDEX 01 55:51:04
TRACK 12 AUDIO
TITLE “7 Days To The Wolves”
PERFORMER “Nightwish”
INDEX 01 61:31:54
TRACK 13 AUDIO
TITLE “Meadows Of Heaven”
PERFORMER “Nightwish”
INDEX 01 68:35:49

REM GENRE Gothic
REM DATE 2007
REM DISCID AD11C10D
REM COMMENT “ExactAudioCopy v0.99pb4”
PERFORMER “Nightwish”
TITLE “Dark Passion Play CD2”
FILE “Nightwish – Dark Passion Play CD2.flac” FLAC
TRACK 01 AUDIO
TITLE “The Poet And The Pendulum (Instrumental)”
PERFORMER “Nightwish”
INDEX 01 00:00:00
TRACK 02 AUDIO
TITLE “Bye Bye Beautiful (Instrumental)”
PERFORMER “Nightwish”
INDEX 00 13:53:17
INDEX 01 13:54:46
TRACK 03 AUDIO
TITLE “Amaranth (Instrumental)”
PERFORMER “Nightwish”
INDEX 00 18:08:65
INDEX 01 18:08:73
TRACK 04 AUDIO
TITLE “Cadence Of Her Last Breath (Instrumental)”
PERFORMER “Nightwish”
INDEX 00 22:00:43
INDEX 01 22:00:57
TRACK 05 AUDIO
TITLE “Master Passion Greed (Instrumental)”
PERFORMER “Nightwish”
INDEX 00 26:15:29
INDEX 01 26:15:37
TRACK 06 AUDIO
TITLE “Eva (Instrumental)”
PERFORMER “Nightwish”
INDEX 00 32:14:06
INDEX 01 32:17:69
TRACK 07 AUDIO
TITLE “Sahara (Instrumental)”
PERFORMER “Nightwish”
INDEX 00 36:41:70
INDEX 01 36:43:48
TRACK 08 AUDIO
TITLE “Whoever Brings The Night (Instrumental)”
PERFORMER “Nightwish”
INDEX 00 42:29:58
INDEX 01 42:30:74
TRACK 09 AUDIO
TITLE “For The Heart I Once Had (Instrumental)”
PERFORMER “Nightwish”
INDEX 00 46:46:59
INDEX 01 46:48:48
TRACK 10 AUDIO
TITLE “The Islander (Instrumental)”
PERFORMER “Nightwish”
INDEX 00 50:44:44
INDEX 01 50:44:49
TRACK 11 AUDIO
TITLE “Last Of The Wilds (Instrumental)”
PERFORMER “Nightwish”
INDEX 00 55:50:29
INDEX 01 55:50:43
TRACK 12 AUDIO
TITLE “7 Days To The Wolves (Instrumental)”
PERFORMER “Nightwish”
INDEX 00 61:31:16
INDEX 01 61:31:17
TRACK 13 AUDIO
TITLE “Meadows Of Heaven (Instrumental)”
PERFORMER “Nightwish”
INDEX 01 68:35:73

Leave a Reply

Your email address will not be published. Required fields are marked *

Enter the text from the image below
 

This site uses Akismet to reduce spam. Learn how your comment data is processed.