Nightwish – Century Child




Artist: Nightwish
Year: 2002
Genre: Metal
Notes: Discogs
Add. Notes:
Cover incl.: Yes
Encoder: FLAC
Bitrate: ~1000 kBit/s (44.1 kHz/16 Bit/s)
Log & Cue incl.: Yes/Yes
Size: 368,3 MB
Password: “slam” (without ” “)


All Downloads/Hosters are compatible

Download 1
KatFile.com
Turbobit.net
FileFactory.com
Rapidgator.net
Download 2
KatFile.com
Turbobit.net
FileFactory.com
Rapidgator.net

Tracklist:

1 - Bless The Child - 6:13
2 - End Of All Hope - 3:55
3 - Dead To The World - 4:20
4 - Ever Dream - 4:44
5 - Slaying The Dreamer - 4:32
6 - Forever Yours - 3:51
7 - Ocean Soul - 4:14
8 - Feel For You - 3:55
9 - The Phantom Of The Opera - 4:10
 Beauty Of The Beast - (10:21)
10.1 - Long Lost Love - 
10.2 - One More Night To Live - 
10.3 - Christabel

EAC-Log, CUE-Sheed & NFO:

Click to open spoiler
Exact Audio Copy V0.99 prebeta 4 from 23. January 2008

Отчёт EAC об извлечении, выполненном 27. апреля 2009, 12:16

Nightwish / Century Child

Дисковод: _NEC DVD_RW ND-3550A Adapter: 0 ID: 1

Режим чтения : Достоверность
Использование точного потока : Да
Отключение кэша аудио : Да
Использование указателей C2 : Нет

Коррекция смещения при чтении : 48
Способность читать области Lead-in и Lead-out : Нет
Заполнение пропущенных сэмплов тишиной : Да
Удаление блоков с тишиной в начале и конце : Нет
При вычислениях CRC использовались нулевые сэмплы : Да
Интерфейс : Установленный внешний ASPI-интерфейс

Выходной формат : Внутренние WAV-операции
Формат сэмплов : 44.100 Гц; 16 бит; стерео

TOC извлечённого CD

Трек | Старт | Длительность | Начальный сектор | Конечный сектор
———————————————————————
1 | 0:00.00 | 6:12.42 | 0 | 27941
2 | 6:12.42 | 3:55.05 | 27942 | 45571
3 | 10:07.47 | 4:19.55 | 45572 | 65051
4 | 14:27.27 | 4:43.73 | 65052 | 86349
5 | 19:11.25 | 4:31.57 | 86350 | 106731
6 | 23:43.07 | 3:50.50 | 106732 | 124031
7 | 27:33.57 | 4:14.20 | 124032 | 143101
8 | 31:48.02 | 3:55.05 | 143102 | 160731
9 | 35:43.07 | 4:10.30 | 160732 | 179511
10 | 39:53.37 | 10:21.60 | 179512 | 226146

Характеристики диапазона извлечения и сообщения об ошибках

Выбранный диапазон

Имя файла E:\Music\Nightwish Discography\Albums\2002 – Century Child (Drakkar)\Nightwish – Century Child.wav

Пиковый уровень 98.8 %
Качество диапазона 100.0 %
CRC копии 6F123BB2
Копирование… OK

Ошибок не произошло

AccurateRip: сводка

Трек 1 точность не определена (достоверность 110) [3D5E864E], AccurateRip вернул [D8C0F134]
Трек 2 точность не определена (достоверность 109) [0E8562AD], AccurateRip вернул [B3D542D3]
Трек 3 точность не определена (достоверность 108) [26A0CDE1], AccurateRip вернул [96756539]
Трек 4 точность не определена (достоверность 108) [7DBD125C], AccurateRip вернул [D74FEBCC]
Трек 5 точность не определена (достоверность 108) [D0619F9D], AccurateRip вернул [A9FB04F9]
Трек 6 точность не определена (достоверность 107) [B51A11AC], AccurateRip вернул [B14B7763]
Трек 7 точность не определена (достоверность 108) [FEE3FCA8], AccurateRip вернул [0070C2CD]
Трек 8 точность не определена (достоверность 108) [5E90C548], AccurateRip вернул [610870FC]
Трек 9 точность не определена (достоверность 110) [55921318], AccurateRip вернул [6365CFCF]
Трек 10 точность не определена (достоверность 104) [B7BAB4AB], AccurateRip вернул [E31C15CC]

Ни один трек не прошёл проверки на точность
В вашей базе может быть иной вариант штамповки диска

Конец отчёта

REM GENRE Metal
REM DATE 2002
REM DISCID 870BC70A
REM COMMENT “ExactAudioCopy v0.99pb4”
PERFORMER “Nightwish”
TITLE “Century Child”
FILE “Nightwish – Century Child.flac” FLAC
TRACK 01 AUDIO
TITLE “Bless The Child”
PERFORMER “Nightwish”
INDEX 01 00:00:00
TRACK 02 AUDIO
TITLE “End Of All Hope”
PERFORMER “Nightwish”
INDEX 01 06:12:42
TRACK 03 AUDIO
TITLE “Dead To The World”
PERFORMER “Nightwish”
INDEX 00 10:06:34
INDEX 01 10:07:47
TRACK 04 AUDIO
TITLE “Ever Dream”
PERFORMER “Nightwish”
INDEX 01 14:27:27
TRACK 05 AUDIO
TITLE “Slaying The Dreamer”
PERFORMER “Nightwish”
INDEX 00 19:10:20
INDEX 01 19:11:25
TRACK 06 AUDIO
TITLE “Forever Yours”
PERFORMER “Nightwish”
INDEX 00 23:43:04
INDEX 01 23:43:07
TRACK 07 AUDIO
TITLE “Ocean Soul”
PERFORMER “Nightwish”
INDEX 01 27:33:57
TRACK 08 AUDIO
TITLE “Feel For You”
PERFORMER “Nightwish”
INDEX 01 31:48:02
TRACK 09 AUDIO
TITLE “The Phantom Of The Opera”
PERFORMER “Nightwish”
INDEX 00 35:42:12
INDEX 01 35:43:07
TRACK 10 AUDIO
TITLE “Beauty Of The Beast”
PERFORMER “Nightwish”
INDEX 00 39:51:57
INDEX 01 39:53:37


Leave a Reply

Your email address will not be published. Required fields are marked *

This site uses Akismet to reduce spam. Learn how your comment data is processed.