Nightwish – Bestwishes




Artist: Nightwish
Year: 2005
Genre: Metal
Notes: Discogs
Add. Notes: Japanese Edition
Encoder: FLAC
Bitrate: ~1000 kBit/s ()
Size: 612,63 MB
Password: “slam” (without ” “)


http://www.share-online.biz/dl/M0K3YLOP0KE
http://www.share-online.biz/dl/S9L9YLOPBY
http://www.share-online.biz/dl/2P2KYLOPPL
http://www.share-online.biz/dl/9NGPYLOP2J
http://www.share-online.biz/dl/OO70ZLOP7196
http://www.share-online.biz/dl/O7V5ZLOPCS
http://www.share-online.biz/dl/BY6BZLOP60O
https://rapidgator.net/file/1908a0c5a81e10afb78fb009a16ef1a1
https://rapidgator.net/file/3f6ea52516c126a27db2788edd2509ed
https://rapidgator.net/file/4574b99c4ee444c6a2b657a085c0eb4f
https://rapidgator.net/file/5a50f734946efff60b62b6507cb08be3
https://rapidgator.net/file/93ea62fef52107de190992a85c3b2e31
https://rapidgator.net/file/aa88dae25af4cbf56eec5e9dbef12c9d
https://rapidgator.net/file/d9bbd41498181201fbdcbe8b29dd4bfd

Onlinestatus: Turbobit.net Rapidgator.net

Tracklist:

1 - Stargazers - 4:26
2 - The Kinslayer - 3:58
3 - She Is My Sin - 4:45
4 - Ever Dream - 4:43
5 - Come Cover Me - 4:34
6 - Know Why The Nightingale Sings - 4:12
7 - Bless The Child - 6:12
8 - End Of All Hope - 3:53
9 - The Riddler - 5:14
10 - Sleepwalker (Originalmix) - 2:55
11 - Crownless - 4:25
12 - Sacrament Of Wilderness - 4:09
13 - Walking In The Air - 5:28
14 - Beauty And The Beast - 6:22
15 - Wishmaster - 4:22
16 - Over The Hills And Far Away - 4:59
17 - Sleeping Sun - 4:02

EAC-Log, CUE-Sheed & NFO:

Click to open spoiler
Exact Audio Copy V0.99 prebeta 5 from 4. May 2009

Отчёт EAC об извлечении, выполненном 18. мая 2010, 23:06

NIGHTWISH / Best Wishes

Дисковод: TEAC DW-548D Adapter: 0 ID: 0

Режим чтения : Достоверность
Использование точного потока : Да
Отключение кэша аудио : Да
Использование указателей C2 : Нет

Коррекция смещения при чтении : 6
Способность читать области Lead-in и Lead-out : Нет
Заполнение пропущенных сэмплов тишиной : Да
Удаление блоков с тишиной в начале и конце : Нет
При вычислениях CRC использовались нулевые сэмплы : Да
Интерфейс : Встроенный Win32-интерфейс для Win NT/2000

Выходной формат : Внутренние WAV-операции
Формат сэмплов : 44.100 Гц; 16 бит; стерео

TOC извлечённого CD

Трек | Старт | Длительность | Начальный сектор | Конечный сектор
———————————————————————
1 | 0:00.00 | 4:26.52 | 0 | 20001
2 | 4:26.52 | 3:58.13 | 20002 | 37864
3 | 8:24.65 | 4:45.00 | 37865 | 59239
4 | 13:09.65 | 4:43.02 | 59240 | 80466
5 | 17:52.67 | 4:34.50 | 80467 | 101066
6 | 22:27.42 | 4:12.58 | 101067 | 120024
7 | 26:40.25 | 6:12.22 | 120025 | 147946
8 | 32:52.47 | 3:53.68 | 147947 | 165489
9 | 36:46.40 | 5:14.62 | 165490 | 189101
10 | 42:01.27 | 2:55.53 | 189102 | 202279
11 | 44:57.05 | 4:25.52 | 202280 | 222206
12 | 49:22.57 | 4:09.35 | 222207 | 240916
13 | 53:32.17 | 5:28.10 | 240917 | 265526
14 | 59:00.27 | 6:22.50 | 265527 | 294226
15 | 65:23.02 | 4:22.48 | 294227 | 313924
16 | 69:45.50 | 4:59.42 | 313925 | 336391
17 | 74:45.17 | 4:02.18 | 336392 | 354559

Характеристики диапазона извлечения и сообщения об ошибках

Выбранный диапазон

Имя файла M:\Music\Nightwish Discographia\2005 – Bestwishes\2005 – Bestwishes (Best Of).wav

Пиковый уровень 98.8 %
Качество диапазона 100.0 %
CRC копии 3024D681
Копирование… OK

Ошибок не произошло

Конец отчёта

REM GENRE “Heavy Metal”
REM DATE 2005
REM DISCID 07127711
REM COMMENT “ExactAudioCopy v0.99pb5”
PERFORMER “NIGHTWISH”
TITLE “Best Wishes”
FILE “2005 – Bestwishes (Best Of).flac” FLAC
TRACK 01 AUDIO
TITLE “Stargazers”
PERFORMER “NIGHTWISH”
INDEX 01 00:00:00
TRACK 02 AUDIO
TITLE “The Kinslayer”
PERFORMER “NIGHTWISH”
INDEX 01 04:26:52
TRACK 03 AUDIO
TITLE “She is My Sin”
PERFORMER “NIGHTWISH”
INDEX 01 08:24:65
TRACK 04 AUDIO
TITLE “Ever Dream”
PERFORMER “NIGHTWISH”
INDEX 01 13:09:65
TRACK 05 AUDIO
TITLE “Come Cover Me”
PERFORMER “NIGHTWISH”
INDEX 01 17:52:67
TRACK 06 AUDIO
TITLE “Know Why the Nightingale Sings”
PERFORMER “NIGHTWISH”
INDEX 01 22:27:42
TRACK 07 AUDIO
TITLE “Bless the Child”
PERFORMER “NIGHTWISH”
INDEX 01 26:40:25
TRACK 08 AUDIO
TITLE “End of All Hope”
PERFORMER “NIGHTWISH”
INDEX 01 32:52:47
TRACK 09 AUDIO
TITLE “The Riddler”
PERFORMER “NIGHTWISH”
INDEX 01 36:46:40
TRACK 10 AUDIO
TITLE “Sleepwalker -Original mix-”
PERFORMER “NIGHTWISH”
INDEX 01 42:01:27
TRACK 11 AUDIO
TITLE “Crownless”
PERFORMER “NIGHTWISH”
INDEX 01 44:57:05
TRACK 12 AUDIO
TITLE “Sacrament of Wilderness”
PERFORMER “NIGHTWISH”
INDEX 01 49:22:57
TRACK 13 AUDIO
TITLE “Walking in the Air”
PERFORMER “NIGHTWISH”
INDEX 01 53:32:17
TRACK 14 AUDIO
TITLE “Beauty and the Beast”
PERFORMER “NIGHTWISH”
INDEX 01 59:00:27
TRACK 15 AUDIO
TITLE “Wishmaster”
PERFORMER “NIGHTWISH”
INDEX 01 65:23:02
TRACK 16 AUDIO
TITLE “Over the Hills and far away”
PERFORMER “NIGHTWISH”
INDEX 01 69:45:50
TRACK 17 AUDIO
TITLE “Sleeping Sun”
PERFORMER “NIGHTWISH”
INDEX 01 74:45:17

Leave a Reply

Your email address will not be published. Required fields are marked *

This site uses Akismet to reduce spam. Learn how your comment data is processed.