Nightwish – Angels Fall First




Artist: Nightwish
Year: 1997
Genre: Metal
Notes: Discogs
Add. Notes:
Cover incl.: Yes
Encoder: FLAC
Bitrate: ~1000 kBit/s (44.1 kHz/16 Bit/s)
Log & Cue incl.: Yes/Yes
Size: 372,1 MB
Password: “slam” (without ” “)


All Downloads/Hosters are compatible

Download 1
KatFile.com
Turbobit.net
FileFactory.com
Rapidgator.net
Download 2
KatFile.com
Turbobit.net
FileFactory.com
Rapidgator.net

Tracklist:

1 - Astral Romance - 5:11
2 - Angels Fall First - 5:34
3 - The Carpenter - 5:56
4 - Nymphomaniac Fantasia - 4:45
5 - Once Upon A Troubadour - 5:20
6 - A Return To The Sea - 5:47
 Lappi (Lapland)
7.I - Erämaajärvi - 2:15
7.II - Witchdrums - 1:19
7.III - This Moment Is Eternity - 3:12
7.IV - Etiäinen - 2:34

EAC-Log, CUE-Sheed & NFO:

Click to open spoiler
Exact Audio Copy V0.99 prebeta 4 from 23. January 2008

Отчёт EAC об извлечении, выполненном 27. апреля 2009, 17:16

Nightwish / Angels Fall First

Дисковод: _NEC DVD_RW ND-3550A Adapter: 0 ID: 1

Режим чтения : Достоверность
Использование точного потока : Да
Отключение кэша аудио : Да
Использование указателей C2 : Нет

Коррекция смещения при чтении : 48
Способность читать области Lead-in и Lead-out : Нет
Заполнение пропущенных сэмплов тишиной : Да
Удаление блоков с тишиной в начале и конце : Нет
При вычислениях CRC использовались нулевые сэмплы : Да
Интерфейс : Установленный внешний ASPI-интерфейс

Выходной формат : Внутренние WAV-операции
Формат сэмплов : 44.100 Гц; 16 бит; стерео

TOC извлечённого CD

Трек | Старт | Длительность | Начальный сектор | Конечный сектор
———————————————————————
1 | 0:00.00 | 4:40.07 | 0 | 21006
2 | 4:40.07 | 6:24.20 | 21007 | 49826
3 | 11:04.27 | 5:57.58 | 49827 | 76659
4 | 17:02.10 | 5:12.70 | 76660 | 100129
5 | 22:15.05 | 5:34.37 | 100130 | 125216
6 | 27:49.42 | 5:31.48 | 125217 | 150089
7 | 33:21.15 | 4:47.15 | 150090 | 171629
8 | 38:08.30 | 4:14.30 | 171630 | 190709
9 | 42:22.60 | 2:15.15 | 190710 | 200849
10 | 44:38.00 | 1:18.47 | 200850 | 206746
11 | 45:56.47 | 3:12.28 | 206747 | 221174
12 | 49:09.00 | 2:34.05 | 221175 | 232729

Характеристики диапазона извлечения и сообщения об ошибках

Выбранный диапазон

Имя файла E:\Music\Nightwish Discography\Albums\1996 – Angels Fall First (Universal Russia 2002)\Nightwish – Angels Fall First.wav

Пиковый уровень 98.8 %
Качество диапазона 100.0 %
CRC копии 2F1E259C
Копирование… OK

Ошибок не произошло

AccurateRip: сводка

Трек 1 точность не определена (достоверность 52) [F0A2163D], AccurateRip вернул [766BF4CB]
Трек 2 точность не определена (достоверность 53) [839A199D], AccurateRip вернул [FD96FC10]
Трек 3 точность не определена (достоверность 52) [112129A6], AccurateRip вернул [97D30506]
Трек 4 точность не определена (достоверность 52) [A561C8A0], AccurateRip вернул [28A53115]
Трек 5 точность не определена (достоверность 52) [8C947E15], AccurateRip вернул [17533661]
Трек 6 точность не определена (достоверность 50) [22D06E41], AccurateRip вернул [AB49B7F0]
Трек 7 точность не определена (достоверность 51) [A2ECBD9F], AccurateRip вернул [906BFE81]
Трек 8 точность не определена (достоверность 52) [A6F360E6], AccurateRip вернул [564B16C1]
Трек 9 точность не определена (достоверность 52) [BF1BB5A0], AccurateRip вернул [9AAF5001]
Трек 10 точность не определена (достоверность 52) [9FD03013], AccurateRip вернул [352F5AE0]
Трек 11 точность не определена (достоверность 52) [C6FBFE11], AccurateRip вернул [F9F8E46A]
Трек 12 точность не определена (достоверность 53) [A594F971], AccurateRip вернул [EFD2F3B6]

Ни один трек не прошёл проверки на точность
В вашей базе может быть иной вариант штамповки диска

Конец отчёта

REM GENRE “Heavy Metal”
REM DATE 2002
REM DISCID 9C0C1F0C
REM COMMENT “ExactAudioCopy v0.99pb4”
PERFORMER “Nightwish”
TITLE “Angels Fall First”
FILE “Nightwish – Angels Fall First.flac” FLAC
TRACK 01 AUDIO
TITLE “Elvenpath”
PERFORMER “Nightwish”
INDEX 01 00:00:00
TRACK 02 AUDIO
TITLE “Beauty And The Beast”
PERFORMER “Nightwish”
INDEX 00 04:37:73
INDEX 01 04:40:07
TRACK 03 AUDIO
TITLE “The Carpenter”
PERFORMER “Nightwish”
INDEX 00 11:02:55
INDEX 01 11:04:27
TRACK 04 AUDIO
TITLE “Astral Romance”
PERFORMER “Nightwish”
INDEX 00 17:00:15
INDEX 01 17:02:10
TRACK 05 AUDIO
TITLE “Angels Fall First”
PERFORMER “Nightwish”
INDEX 00 22:13:04
INDEX 01 22:15:05
TRACK 06 AUDIO
TITLE “Tutankhamen”
PERFORMER “Nightwish”
INDEX 00 27:49:30
INDEX 01 27:49:42
TRACK 07 AUDIO
TITLE “Nymphomaniac Fantasia”
PERFORMER “Nightwish”
INDEX 00 33:19:25
INDEX 01 33:21:15
TRACK 08 AUDIO
TITLE “Know Why The Nightingale Sings”
PERFORMER “Nightwish”
INDEX 00 38:06:31
INDEX 01 38:08:30
TRACK 09 AUDIO
TITLE “Lappi (Lapland) I – Eramaajarvi”
PERFORMER “Nightwish”
INDEX 00 42:21:35
INDEX 01 42:22:60
TRACK 10 AUDIO
TITLE “Lappi (Lapland) II – Witchdrums”
PERFORMER “Nightwish”
INDEX 01 44:38:00
TRACK 11 AUDIO
TITLE “Lappi (Lapland) III – This Moment Is Eternity”
PERFORMER “Nightwish”
INDEX 00 45:56:35
INDEX 01 45:56:47
TRACK 12 AUDIO
TITLE “Lappi (Lapland) IV – Etiainen”
PERFORMER “Nightwish”
INDEX 01 49:09:00


Leave a Reply

Your email address will not be published. Required fields are marked *

This site uses Akismet to reduce spam. Learn how your comment data is processed.