Nickelback – The Best Of Nickelback (Volume 1)




Artist: Nickelback
Year: 2013
Genre: Rock
Notes: Discogs
Add. Notes:
Encoder: FLAC
Bitrate: ~1000 kBit/s (44.1 kHz/16 Bit/s)
Size: 542,96 MB
Password: “slam” (without ” “)


Crypted via FileCrypt.cc:

.

Crypted via Relink.to:

Tracklist:

1 - Photograph - 4:19
2 - How You Remind Me - 3:44
3 - Burn It To The Ground - 3:30
4 - Rockstar - 4:15
5 - Savin' Me - 3:37
6 - Figured You Out - 3:49
7 - Too Bad - 3:52
8 - If Today Was Your Last Day - 4:08
9 - Far Away - 3:58
10 - Feelin' Way Too Damn Good - 4:16
11 - Someday - 3:27
12 - Never Again - 4:21
13 - Lullaby - 3:47
14 - If Everyone Cared - 3:37
15 - Gotta Be Somebody - 4:12
16 - When We Stand Together - 3:10
17 - Animals - 3:05
18 - This Afternoon - 4:34
19 - Something In Your Mouth - 3:39

EAC-Log, CUE-Sheed & NFO:

Click to open spoiler
Exact Audio Copy V1.0 beta 3 from 29. August 2011

EAC extraction logfile from 12. December 2013, 20:05

Nickelback / The Best of Nickelback, Volume 1

Used drive : TSSTcorpCDDVDW SH-S223C Adapter: 0 ID: 2

Read mode : Secure
Utilize accurate stream : Yes
Defeat audio cache : Yes
Make use of C2 pointers : No

Read offset correction : 697
Overread into Lead-In and Lead-Out : No
Fill up missing offset samples with silence : Yes
Delete leading and trailing silent blocks : No
Null samples used in CRC calculations : Yes
Used interface : Native Win32 interface for Win NT & 2000
Gap handling : Appended to previous track

Used output format : User Defined Encoder
Selected bitrate : 1024 kBit/s
Quality : High
Add ID3 tag : No
Command line compressor : D:\Software\Exact Audio Copy\Flac\flac.exe
Additional command line options : -8 -V -T “ARTIST=%artist%” -T “TITLE=%title%” -T “ALBUM=%albumtitle%” -T “DATE=%year%” -T “TRACKNUMBER=%tracknr%” -T “GENRE=%genre%” -T “PERFORMER=%albuminterpret%” -T “COMPOSER=%composer%” %haslyrics%–tag-from-file=LYRICS=”%lyricsfile%”%haslyrics% -T “ALBUMARTIST=%albumartist%” -T “DISCNUMBER=%cdnumber%” -T “TOTALDISCS=%totalcds%” -T “TOTALTRACKS=%numtracks%” -T “COMMENT=%comment%” %source% -o %dest%

TOC of the extracted CD

Track | Start | Length | Start sector | End sector
———————————————————
1 | 0:00.00 | 4:19.65 | 0 | 19489
2 | 4:19.65 | 3:44.13 | 19490 | 36302
3 | 8:04.03 | 3:30.42 | 36303 | 52094
4 | 11:34.45 | 4:15.48 | 52095 | 71267
5 | 15:50.18 | 3:37.64 | 71268 | 87606
6 | 19:28.07 | 3:49.32 | 87607 | 104813
7 | 23:17.39 | 3:52.74 | 104814 | 122287
8 | 27:10.38 | 4:08.10 | 122288 | 140897
9 | 31:18.48 | 3:58.49 | 140898 | 158796
10 | 35:17.22 | 4:16.16 | 158797 | 178012
11 | 39:33.38 | 3:27.50 | 178013 | 193587
12 | 43:01.13 | 4:21.13 | 193588 | 213175
13 | 47:22.26 | 3:47.66 | 213176 | 230266
14 | 51:10.17 | 3:37.19 | 230267 | 246560
15 | 54:47.36 | 4:12.57 | 246561 | 265517
16 | 59:00.18 | 3:10.52 | 265518 | 279819
17 | 62:10.70 | 3:05.68 | 279820 | 293762
18 | 65:16.63 | 4:34.21 | 293763 | 314333
19 | 69:51.09 | 3:39.47 | 314334 | 330805

Track 1

Filename D:\Downloads\01 – Photograph.wav

Pre-gap length 0:00:02.00

Peak level 96.6 %
Extraction speed 2.0 X
Track quality 100.0 %
Test CRC CB3D838D
Copy CRC CB3D838D
Cannot be verified as accurate (confidence 2) [436E31C7], AccurateRip returned [5F655DAD] (AR v2)
Copy OK

Track 2

Filename D:\Downloads\02 – How You Remind Me.wav

Peak level 97.7 %
Extraction speed 2.2 X
Track quality 100.0 %
Test CRC BA15A9A3
Copy CRC BA15A9A3
Cannot be verified as accurate (confidence 2) [46736B57], AccurateRip returned [3F3F3297] (AR v2)
Copy OK

Track 3

Filename D:\Downloads\03 – Burn It to the Ground.wav

Peak level 97.7 %
Extraction speed 2.3 X
Track quality 100.0 %
Test CRC BE837E7C
Copy CRC BE837E7C
Cannot be verified as accurate (confidence 3) [1A724B46], AccurateRip returned [1419B602] (AR v2)
Copy OK

Track 4

Filename D:\Downloads\04 – Rockstar.wav

Peak level 96.6 %
Extraction speed 2.1 X
Track quality 99.9 %
Test CRC 97A2EBFA
Copy CRC 97A2EBFA
Cannot be verified as accurate (confidence 2) [103BC87A], AccurateRip returned [CF811050] (AR v2)
Copy OK

Track 5

Filename D:\Downloads\05 – Savin’ Me.wav

Peak level 96.6 %
Extraction speed 2.6 X
Track quality 100.0 %
Test CRC ED8DE54C
Copy CRC ED8DE54C
Cannot be verified as accurate (confidence 2) [B873AE57], AccurateRip returned [6E056659] (AR v2)
Copy OK

Track 6

Filename D:\Downloads\06 – Figured You Out.wav

Peak level 97.7 %
Extraction speed 2.2 X
Track quality 99.9 %
Test CRC F74E1D04
Copy CRC F74E1D04
Cannot be verified as accurate (confidence 2) [ECEC410B], AccurateRip returned [B82CB04D] (AR v2)
Copy OK

Track 7

Filename D:\Downloads\07 – Too Bad.wav

Peak level 97.7 %
Extraction speed 2.9 X
Track quality 100.0 %
Test CRC 93E45AD5
Copy CRC 93E45AD5
Cannot be verified as accurate (confidence 2) [25B92ADA], AccurateRip returned [638B8EC6] (AR v2)
Copy OK

Track 8

Filename D:\Downloads\08 – If Today Was Your Last Day.wav

Peak level 97.7 %
Extraction speed 3.0 X
Track quality 100.0 %
Test CRC C6425232
Copy CRC C6425232
Cannot be verified as accurate (confidence 2) [167794B6], AccurateRip returned [09AFAA46] (AR v2)
Copy OK

Track 9

Filename D:\Downloads\09 – Far Away.wav

Peak level 96.6 %
Extraction speed 3.1 X
Track quality 100.0 %
Test CRC 617F0ADA
Copy CRC 617F0ADA
Cannot be verified as accurate (confidence 2) [2AB82365], AccurateRip returned [E6D0FC23] (AR v2)
Copy OK

Track 10

Filename D:\Downloads\10 – Feelin’ Way Too Damn Good.wav

Peak level 97.7 %
Extraction speed 3.3 X
Track quality 100.0 %
Test CRC B01D0471
Copy CRC B01D0471
Cannot be verified as accurate (confidence 2) [6C0BDB5A], AccurateRip returned [45EA39A9] (AR v2)
Copy OK

Track 11

Filename D:\Downloads\11 – Someday.wav

Peak level 97.7 %
Extraction speed 3.3 X
Track quality 100.0 %
Test CRC 11604FE5
Copy CRC 11604FE5
Cannot be verified as accurate (confidence 2) [13CFB6D0], AccurateRip returned [1CF1F59F] (AR v2)
Copy OK

Track 12

Filename D:\Downloads\12 – Never Again.wav

Peak level 96.4 %
Extraction speed 3.5 X
Track quality 100.0 %
Test CRC 8E3ACEE0
Copy CRC 8E3ACEE0
Cannot be verified as accurate (confidence 2) [A95B486C], AccurateRip returned [4956E1EC] (AR v2)
Copy OK

Track 13

Filename D:\Downloads\13 – Lullaby.wav

Peak level 97.7 %
Extraction speed 3.5 X
Track quality 100.0 %
Test CRC 2C392140
Copy CRC 2C392140
Cannot be verified as accurate (confidence 2) [7325A693], AccurateRip returned [3D6A7F89] (AR v2)
Copy OK

Track 14

Filename D:\Downloads\14 – If Everyone Cared.wav

Peak level 96.6 %
Extraction speed 3.6 X
Track quality 100.0 %
Test CRC 3F4C15F6
Copy CRC 3F4C15F6
Cannot be verified as accurate (confidence 2) [8B5F7F22], AccurateRip returned [CB489E55] (AR v2)
Copy OK

Track 15

Filename D:\Downloads\15 – Gotta Be Somebody.wav

Peak level 97.7 %
Extraction speed 3.8 X
Track quality 100.0 %
Test CRC 2B195E72
Copy CRC 2B195E72
Cannot be verified as accurate (confidence 2) [46CA39F2], AccurateRip returned [95DB6FBE] (AR v2)
Copy OK

Track 16

Filename D:\Downloads\16 – When We Stand Together.wav

Peak level 97.7 %
Extraction speed 3.7 X
Track quality 100.0 %
Test CRC 4DBF0C84
Copy CRC 4DBF0C84
Cannot be verified as accurate (confidence 2) [ABB68B03], AccurateRip returned [78C376BF] (AR v2)
Copy OK

Track 17

Filename D:\Downloads\17 – Animals.wav

Peak level 96.6 %
Extraction speed 2.5 X
Track quality 99.9 %
Test CRC 8CF55129
Copy CRC 8CF55129
Cannot be verified as accurate (confidence 2) [73D4FA9F], AccurateRip returned [CEDF86A3] (AR v2)
Copy OK

Track 18

Filename D:\Downloads\18 – This Afternoon.wav

Peak level 97.7 %
Extraction speed 4.0 X
Track quality 100.0 %
Test CRC 80191014
Copy CRC 80191014
Cannot be verified as accurate (confidence 2) [EED68865], AccurateRip returned [17194D50] (AR v2)
Copy OK

Track 19

Filename D:\Downloads\19 – Something in Your Mouth.wav

Peak level 97.7 %
Extraction speed 4.0 X
Track quality 100.0 %
Test CRC C76C984D
Copy CRC C76C984D
Cannot be verified as accurate (confidence 2) [C246825B], AccurateRip returned [8E847AB8] (AR v2)
Copy OK

No tracks could be verified as accurate
You may have a different pressing from the one(s) in the database

No errors occurred

End of status report

—- CUETools DB Plugin V2.1.3

[CTDB TOCID: ZgYteF87AByKHkJRx5z0o6lgo4g-] found, Submit result: ZgYteF87AByKHkJRx5z0o6lgo4g- has been confirmed
[a5f0ee56] (13/14) Accurately ripped
[c25af281] (01/14) No match

==== Log checksum 46647C7A2CCC39262780DD8FD615372282413D5F1B333B756B604825EF7612C4 ====

REM GENRE Rock
REM DATE 2013
REM DISCID 26113A13
REM COMMENT “ExactAudioCopy v1.0b3”
CATALOG 0016861759223
PERFORMER “Nickelback”
TITLE “The Best of Nickelback, Volume 1”
FILE “01 – Photograph.wav” WAVE
TRACK 01 AUDIO
TITLE “Photograph”
PERFORMER “Nickelback”
ISRC NLA321393033
INDEX 01 00:00:00
FILE “02 – How You Remind Me.wav” WAVE
TRACK 02 AUDIO
TITLE “How You Remind Me”
PERFORMER “Nickelback”
ISRC NLA321393034
INDEX 01 00:00:00
FILE “03 – Burn It to the Ground.wav” WAVE
TRACK 03 AUDIO
TITLE “Burn It to the Ground”
PERFORMER “Nickelback”
ISRC NLA321393035
INDEX 01 00:00:00
FILE “04 – Rockstar.wav” WAVE
TRACK 04 AUDIO
TITLE “Rockstar”
PERFORMER “Nickelback”
ISRC NLA321393036
INDEX 01 00:00:00
FILE “05 – Savin’ Me.wav” WAVE
TRACK 05 AUDIO
TITLE “Savin’ Me”
PERFORMER “Nickelback”
ISRC NLA321393037
INDEX 01 00:00:00
FILE “06 – Figured You Out.wav” WAVE
TRACK 06 AUDIO
TITLE “Figured You Out”
PERFORMER “Nickelback”
ISRC NLA321393038
INDEX 01 00:00:00
FILE “07 – Too Bad.wav” WAVE
TRACK 07 AUDIO
TITLE “Too Bad”
PERFORMER “Nickelback”
ISRC NLA321393039
INDEX 01 00:00:00
FILE “08 – If Today Was Your Last Day.wav” WAVE
TRACK 08 AUDIO
TITLE “If Today Was Your Last Day”
PERFORMER “Nickelback”
ISRC NLA321393039
INDEX 01 00:00:00
FILE “09 – Far Away.wav” WAVE
TRACK 09 AUDIO
TITLE “Far Away”
PERFORMER “Nickelback”
ISRC NLA321393040
INDEX 01 00:00:00
FILE “10 – Feelin’ Way Too Damn Good.wav” WAVE
TRACK 10 AUDIO
TITLE “Feelin’ Way Too Damn Good”
PERFORMER “Nickelback”
ISRC NLA321393041
INDEX 01 00:00:00
FILE “11 – Someday.wav” WAVE
TRACK 11 AUDIO
TITLE “Someday”
PERFORMER “Nickelback”
ISRC NLA321393043
INDEX 01 00:00:00
FILE “12 – Never Again.wav” WAVE
TRACK 12 AUDIO
TITLE “Never Again”
PERFORMER “Nickelback”
ISRC NLA321393043
INDEX 01 00:00:00
FILE “13 – Lullaby.wav” WAVE
TRACK 13 AUDIO
TITLE “Lullaby”
PERFORMER “Nickelback”
ISRC NLA321393045
INDEX 01 00:00:00
FILE “14 – If Everyone Cared.wav” WAVE
TRACK 14 AUDIO
TITLE “If Everyone Cared”
PERFORMER “Nickelback”
ISRC NLA321393046
INDEX 01 00:00:00
FILE “15 – Gotta Be Somebody.wav” WAVE
TRACK 15 AUDIO
TITLE “Gotta Be Somebody”
PERFORMER “Nickelback”
ISRC NLA321393047
INDEX 01 00:00:00
FILE “16 – When We Stand Together.wav” WAVE
TRACK 16 AUDIO
TITLE “When We Stand Together”
PERFORMER “Nickelback”
ISRC NLA321393048
INDEX 01 00:00:00
FILE “17 – Animals.wav” WAVE
TRACK 17 AUDIO
TITLE “Animals”
PERFORMER “Nickelback”
ISRC NLA321393049
INDEX 01 00:00:00
FILE “18 – This Afternoon.wav” WAVE
TRACK 18 AUDIO
TITLE “This Afternoon”
PERFORMER “Nickelback”
ISRC NLA321393050
INDEX 01 00:00:00
FILE “19 – Something in Your Mouth.wav” WAVE
TRACK 19 AUDIO
TITLE “Something in Your Mouth”
PERFORMER “Nickelback”
ISRC NLA321393050
INDEX 01 00:00:00

Leave a Reply

Your email address will not be published. Required fields are marked *

This site uses Akismet to reduce spam. Learn how your comment data is processed.