Nick Cave & The Bad Seeds – Your Funeral… My Trial (Japanese Edition)




Artist: Nick Cave & The Bad Seeds
Year: 1986/1992
Genre: Rock
Notes: Discogs
Add. Notes: Japanese Edition
Encoder: FLAC
Bitrate: ~700 kBit/s (44.1 kHz/16 Bit/s)
Bin/Cue incl.: Yes
Size: 395,81 MB
Password: “slam” (without ” “)


http://www.share-online.biz/dl/NB52EVRP1S4N

https://rapidgator.net/file/7cfaf2bfab09a2b9e2a0d5c635a82135

https://uploadbyte.com/plvh24xhqw21

https://uploadever.com/ui3ouyorgrsi

https://justupload.io/9702ausmcgoa

Tracklist:

1 - Your Funeral My Trial  
2 - Stranger Than Kindness 
3 - Jacks Shadow 
4 - The Carny 
5 - She Fell Away 
6 - Hard On For Love 
7 - Sad Waters 
8 - Long Time Man 
9 - Scum

EAC-Log, CUE-Sheed & NFO:

Click to open spoiler
Exact Audio Copy V1.0 beta 6 from 9. April 2015

EAC extraction logfile from 5. June 2015, 18:31

Nick Cave & The Bad Seeds / Your Funeral… My Trial [1992, ALCB-651]

Used drive : ASUS DRW-22B3S Adapter: 1 ID: 0

Read mode : Secure
Utilize accurate stream : Yes
Defeat audio cache : Yes
Make use of C2 pointers : No

Read offset correction : 6
Overread into Lead-In and Lead-Out : No
Fill up missing offset samples with silence : Yes
Delete leading and trailing silent blocks : No
Null samples used in CRC calculations : Yes
Used interface : Native Win32 interface for Win NT & 2000
Gap handling : Appended to previous track

Used output format : User Defined Encoder
Selected bitrate : 768 kBit/s
Quality : High
Add ID3 tag : No
Command line compressor : C:\Program Files\Exact Audio Copy\FLAC\FLAC.EXE
Additional command line options : -V -8 -T “Genre=%genre%” -T “Artist=%artist%” -T “Title=%title%” -T “Album=%albumtitle%” -T “Date=%year%” -T “Tracknumber=%tracknr%” -T “Comment=%comment%” %source%

TOC of the extracted CD

Track | Start | Length | Start sector | End sector
———————————————————
1 | 0:00.00 | 3:57.60 | 0 | 17834
2 | 3:57.60 | 4:47.32 | 17835 | 39391
3 | 8:45.17 | 5:43.58 | 39392 | 65174
4 | 14:29.00 | 8:02.52 | 65175 | 101376
5 | 22:31.52 | 4:33.50 | 101377 | 121901
6 | 27:05.27 | 5:21.25 | 121902 | 146001
7 | 32:26.52 | 5:02.18 | 146002 | 168669
8 | 37:28.70 | 5:48.65 | 168670 | 194834
9 | 43:17.60 | 2:53.72 | 194835 | 207881

Track 1

Filename H:\g.y.m\Nick Cave & The Bad Seeds\1986 – Your Funeral… My Trial [1992, ALCB-651]\01. Your Funeral My Trial.wav

Pre-gap length 0:00:02.00

Peak level 59.2 %
Extraction speed 5.5 X
Track quality 100.0 %
Test CRC ECDBB615
Copy CRC ECDBB615
Cannot be verified as accurate (confidence 2) [61C159F1], AccurateRip returned [82FA428F] (AR v2)
Copy OK

Track 2

Filename H:\g.y.m\Nick Cave & The Bad Seeds\1986 – Your Funeral… My Trial [1992, ALCB-651]\02. Stranger Than Kindness.wav

Pre-gap length 0:00:01.52

Peak level 66.5 %
Extraction speed 6.2 X
Track quality 100.0 %
Test CRC 0E6748F3
Copy CRC 0E6748F3
Cannot be verified as accurate (confidence 2) [FEEEADF2], AccurateRip returned [1286CCFF] (AR v2)
Copy OK

Track 3

Filename H:\g.y.m\Nick Cave & The Bad Seeds\1986 – Your Funeral… My Trial [1992, ALCB-651]\03. Jacks Shadow.wav

Pre-gap length 0:00:02.32

Peak level 61.2 %
Extraction speed 7.0 X
Track quality 100.0 %
Test CRC 0615B7FA
Copy CRC 0615B7FA
Cannot be verified as accurate (confidence 2) [71878788], AccurateRip returned [0AA0BC86] (AR v2)
Copy OK

Track 4

Filename H:\g.y.m\Nick Cave & The Bad Seeds\1986 – Your Funeral… My Trial [1992, ALCB-651]\04. The Carny.wav

Pre-gap length 0:00:02.55

Peak level 61.6 %
Extraction speed 7.2 X
Track quality 99.9 %
Test CRC 07C1FA76
Copy CRC 07C1FA76
Cannot be verified as accurate (confidence 2) [62C99253], AccurateRip returned [8040FBD4] (AR v2)
Copy OK

Track 5

Filename H:\g.y.m\Nick Cave & The Bad Seeds\1986 – Your Funeral… My Trial [1992, ALCB-651]\05. She Fell Away.wav

Pre-gap length 0:00:02.55

Peak level 58.3 %
Extraction speed 8.2 X
Track quality 100.0 %
Test CRC 9F81B86E
Copy CRC 9F81B86E
Cannot be verified as accurate (confidence 2) [ECA7AFA0], AccurateRip returned [1ADD287A] (AR v2)
Copy OK

Track 6

Filename H:\g.y.m\Nick Cave & The Bad Seeds\1986 – Your Funeral… My Trial [1992, ALCB-651]\06. Hard On For Love.wav

Pre-gap length 0:00:02.60

Peak level 67.8 %
Extraction speed 7.5 X
Track quality 99.9 %
Test CRC 9DB3F750
Copy CRC 9DB3F750
Cannot be verified as accurate (confidence 2) [10A3FB54], AccurateRip returned [E2CEE940] (AR v2)
Copy OK

Track 7

Filename H:\g.y.m\Nick Cave & The Bad Seeds\1986 – Your Funeral… My Trial [1992, ALCB-651]\07. Sad Waters.wav

Pre-gap length 0:00:03.35

Peak level 52.1 %
Extraction speed 9.2 X
Track quality 100.0 %
Test CRC 3A517C2B
Copy CRC 3A517C2B
Cannot be verified as accurate (confidence 2) [576C0225], AccurateRip returned [54A660E0] (AR v2)
Copy OK

Track 8

Filename H:\g.y.m\Nick Cave & The Bad Seeds\1986 – Your Funeral… My Trial [1992, ALCB-651]\08. Long Time Man.wav

Pre-gap length 0:00:02.02

Peak level 62.5 %
Extraction speed 9.8 X
Track quality 100.0 %
Test CRC 83275AEC
Copy CRC 83275AEC
Accurately ripped (confidence 1) [E244EC9D] (AR v2)
Copy OK

Track 9

Filename H:\g.y.m\Nick Cave & The Bad Seeds\1986 – Your Funeral… My Trial [1992, ALCB-651]\09. Scum.wav

Pre-gap length 0:00:11.17

Peak level 52.6 %
Extraction speed 7.1 X
Track quality 99.9 %
Test CRC 58DB67EC
Copy CRC 58DB67EC
Cannot be verified as accurate (confidence 2) [EE24AC21], AccurateRip returned [11CEBCDB] (AR v2)
Copy OK

1 track(s) accurately ripped
8 track(s) could not be verified as accurate

Some tracks could not be verified as accurate

No errors occurred

End of status report

==== Log checksum 9BE63666D885D0BD7453E2A60A5EB381A37354D06602D57EEF160C3831118DB7 ====

REM GENRE “Alternative Rock”
REM DATE 1986
REM DISCID 820AD309
REM COMMENT “ExactAudioCopy v1.0b6”
PERFORMER “Nick Cave & The Bad Seeds”
TITLE “Your Funeral… My Trial [1992, ALCB-651]”
FILE “01. Your Funeral My Trial.wav” WAVE
TRACK 01 AUDIO
TITLE “Your Funeral My Trial”
PERFORMER “Nick Cave & The Bad Seeds”
INDEX 01 00:00:00
TRACK 02 AUDIO
TITLE “Stranger Than Kindness”
PERFORMER “Nick Cave & The Bad Seeds”
INDEX 00 03:56:08
FILE “02. Stranger Than Kindness.wav” WAVE
INDEX 01 00:00:00
TRACK 03 AUDIO
TITLE “Jacks Shadow”
PERFORMER “Nick Cave & The Bad Seeds”
INDEX 00 04:45:00
FILE “03. Jacks Shadow.wav” WAVE
INDEX 01 00:00:00
TRACK 04 AUDIO
TITLE “The Carny”
PERFORMER “Nick Cave & The Bad Seeds”
INDEX 00 05:41:03
FILE “04. The Carny.wav” WAVE
INDEX 01 00:00:00
TRACK 05 AUDIO
TITLE “She Fell Away”
PERFORMER “Nick Cave & The Bad Seeds”
INDEX 00 07:59:72
FILE “05. She Fell Away.wav” WAVE
INDEX 01 00:00:00
TRACK 06 AUDIO
TITLE “Hard On For Love”
PERFORMER “Nick Cave & The Bad Seeds”
INDEX 00 04:30:65
FILE “06. Hard On For Love.wav” WAVE
INDEX 01 00:00:00
TRACK 07 AUDIO
TITLE “Sad Waters”
PERFORMER “Nick Cave & The Bad Seeds”
INDEX 00 05:17:65
FILE “07. Sad Waters.wav” WAVE
INDEX 01 00:00:00
TRACK 08 AUDIO
TITLE “Long Time Man”
PERFORMER “Nick Cave & The Bad Seeds”
INDEX 00 05:00:16
FILE “08. Long Time Man.wav” WAVE
INDEX 01 00:00:00
TRACK 09 AUDIO
TITLE “Scum”
PERFORMER “Nick Cave & The Bad Seeds”
INDEX 00 05:37:48
FILE “09. Scum.wav” WAVE
INDEX 01 00:00:00

Leave a Reply

Your email address will not be published. Required fields are marked *

Enter the text from the image below
 

This site uses Akismet to reduce spam. Learn how your comment data is processed.