Nick Cave & The Bad Seeds – The Good Son (Japanese Edition)




Artist: Nick Cave & The Bad Seeds
Year: 1990
Genre: Rock
Notes: Discogs
Add. Notes: Japanese Edition
Cover incl.: Yes
Encoder: FLAC
Bitrate: ~800 kBit/s (44.1 kHz/16 Bit/s)
Log & Cue incl.: Yes
Size: 366,04 MB
Password: “slam” (without ” “)


All Downloads/Hosters are compatible

Download 1
Turbobit.net
Rapidgator.net
UploadEver.com
KatFile.com
UsersDrive.com
Download 2
Turbobit.net
Rapidgator.net
UploadEver.com
KatFile.com
UsersDrive.com
Download 3
Turbobit.net
Rapidgator.net
UploadEver.com
KatFile.com
UsersDrive.com

Tracklist:

1 - Foi Na Cruz - 5:39
2 - The Good Son - 6:04
3 - Sorrow's Child - 4:38
4 - The Weeping Song - 4:11
5 - The Ship Song - 4:15
6 - The Hammer Song - 4:17
7 - Lament - 4:54
8 - The Witness Song - 4:58
9 - Lucy - 4:17
10 - The Train Song - 4:46

EAC-Log, CUE-Sheed & NFO:

Click to open spoiler
Exact Audio Copy V1.0 beta 3 from 29. August 2011

EAC extraction logfile from 22. March 2015, 23:00

Nick Cave & The Bad Seeds / The Good Son [ALCB-47]

Used drive : ASUS DRW-22B3S Adapter: 3 ID: 1

Read mode : Secure
Utilize accurate stream : Yes
Defeat audio cache : Yes
Make use of C2 pointers : No

Read offset correction : 6
Overread into Lead-In and Lead-Out : No
Fill up missing offset samples with silence : Yes
Delete leading and trailing silent blocks : No
Null samples used in CRC calculations : Yes
Used interface : Native Win32 interface for Win NT & 2000
Gap handling : Appended to previous track

Used output format : User Defined Encoder
Selected bitrate : 768 kBit/s
Quality : High
Add ID3 tag : No
Command line compressor : C:\Program Files\Exact Audio Copy\FLAC\FLAC.EXE
Additional command line options : -V -8 -T “Genre=%genre%” -T “Artist=%artist%” -T “Title=%title%” -T “Album=%albumtitle%” -T “Date=%year%” -T “Tracknumber=%tracknr%” -T “Comment=%comment%” %source%

TOC of the extracted CD

Track | Start | Length | Start sector | End sector
———————————————————
1 | 0:00.00 | 5:40.20 | 0 | 25519
2 | 5:40.20 | 6:03.17 | 25520 | 52761
3 | 11:43.37 | 4:39.53 | 52762 | 73739
4 | 16:23.15 | 4:25.10 | 73740 | 93624
5 | 20:48.25 | 5:14.12 | 93625 | 117186
6 | 26:02.37 | 4:16.73 | 117187 | 136459
7 | 30:19.35 | 4:54.22 | 136460 | 158531
8 | 35:13.57 | 5:57.65 | 158532 | 185371
9 | 41:11.47 | 4:19.25 | 185372 | 204821
10 | 45:30.72 | 4:45.45 | 204822 | 226241

Track 1

Filename H:\g.y.m\Nick Cave & The Bad Seeds\1990 – The Good Son [ALCB-47]\01. Foi Na Cruz.wav

Pre-gap length 0:00:02.00

Peak level 90.2 %
Extraction speed 4.7 X
Track quality 99.9 %
Test CRC 82EA3122
Copy CRC 82EA3122
Cannot be verified as accurate (confidence 1) [0EE3C889], AccurateRip returned [3A621FE8] (AR v2)
Copy OK

Track 2

Filename H:\g.y.m\Nick Cave & The Bad Seeds\1990 – The Good Son [ALCB-47]\02. The Good Son.wav

Peak level 91.8 %
Extraction speed 5.4 X
Track quality 99.9 %
Test CRC CBDBAB47
Copy CRC CBDBAB47
Cannot be verified as accurate (confidence 1) [FD47D5CE], AccurateRip returned [474AD763] (AR v2)
Copy OK

Track 3

Filename H:\g.y.m\Nick Cave & The Bad Seeds\1990 – The Good Son [ALCB-47]\03. Sorrow’s Child.wav

Peak level 95.0 %
Extraction speed 6.6 X
Track quality 100.0 %
Test CRC 19E1D692
Copy CRC 19E1D692
Cannot be verified as accurate (confidence 1) [1A8FEDBC], AccurateRip returned [CE2EB57B] (AR v2)
Copy OK

Track 4

Filename H:\g.y.m\Nick Cave & The Bad Seeds\1990 – The Good Son [ALCB-47]\04. The Weeping Song.wav

Pre-gap length 0:00:02.28

Peak level 78.1 %
Extraction speed 7.1 X
Track quality 100.0 %
Test CRC 00E24B71
Copy CRC 00E24B71
Cannot be verified as accurate (confidence 1) [F15BC24C], AccurateRip returned [95577063] (AR v2)
Copy OK

Track 5

Filename H:\g.y.m\Nick Cave & The Bad Seeds\1990 – The Good Son [ALCB-47]\05. The Ship Song.wav

Pre-gap length 0:00:03.13

Peak level 70.5 %
Extraction speed 7.7 X
Track quality 100.0 %
Test CRC E4AE45F8
Copy CRC E4AE45F8
Cannot be verified as accurate (confidence 1) [4E2B68C6], AccurateRip returned [B7B93E2D] (AR v2)
Copy OK

Track 6

Filename H:\g.y.m\Nick Cave & The Bad Seeds\1990 – The Good Son [ALCB-47]\06. The Hammer Song.wav

Peak level 68.4 %
Extraction speed 6.7 X
Track quality 99.9 %
Test CRC 59BC5709
Copy CRC 59BC5709
Cannot be verified as accurate (confidence 1) [B96F937F], AccurateRip returned [BC26E7DF] (AR v2)
Copy OK

Track 7

Filename H:\g.y.m\Nick Cave & The Bad Seeds\1990 – The Good Son [ALCB-47]\07. Lament.wav

Peak level 64.1 %
Extraction speed 8.5 X
Track quality 100.0 %
Test CRC 3EBF8C9F
Copy CRC 3EBF8C9F
Cannot be verified as accurate (confidence 1) [AA98F482], AccurateRip returned [D0A4654E] (AR v2)
Copy OK

Track 8

Filename H:\g.y.m\Nick Cave & The Bad Seeds\1990 – The Good Son [ALCB-47]\08. The Witness Song.wav

Pre-gap length 0:00:02.27

Peak level 82.6 %
Extraction speed 7.9 X
Track quality 99.9 %
Test CRC C7A6DCFE
Copy CRC C7A6DCFE
Cannot be verified as accurate (confidence 1) [E6FAB770], AccurateRip returned [4FA59256] (AR v2)
Copy OK

Track 9

Filename H:\g.y.m\Nick Cave & The Bad Seeds\1990 – The Good Son [ALCB-47]\09. Lucy.wav

Peak level 59.4 %
Extraction speed 9.2 X
Track quality 100.0 %
Test CRC 7DB498B4
Copy CRC 7DB498B4
Cannot be verified as accurate (confidence 1) [E8BECECD], AccurateRip returned [C4479FF5] (AR v2)
Copy OK

Track 10

Filename H:\g.y.m\Nick Cave & The Bad Seeds\1990 – The Good Son [ALCB-47]\10. The Train Song.wav

Peak level 74.1 %
Extraction speed 9.8 X
Track quality 100.0 %
Test CRC 6D6B5801
Copy CRC 6D6B5801
Cannot be verified as accurate (confidence 1) [760A3AB7], AccurateRip returned [87BDC488] (AR v2)
Copy OK

No tracks could be verified as accurate
You may have a different pressing from the one(s) in the database

No errors occurred

End of status report

==== Log checksum EF6FF8B2B84494AF3897A16885AAC5653FA4A936A97A9C93F87A9A2D622468C3 ====

REM GENRE “Alternative Rock”
REM DATE 1990
REM DISCID 780BC80A
REM COMMENT “ExactAudioCopy v1.0b3”
PERFORMER “Nick Cave & The Bad Seeds”
TITLE “The Good Son [ALCB-47]”
FILE “01. Foi Na Cruz.wav” WAVE
TRACK 01 AUDIO
TITLE “Foi Na Cruz”
PERFORMER “Nick Cave & The Bad Seeds”
INDEX 01 00:00:00
FILE “02. The Good Son.wav” WAVE
TRACK 02 AUDIO
TITLE “The Good Son”
PERFORMER “Nick Cave & The Bad Seeds”
INDEX 01 00:00:00
FILE “03. Sorrow’s Child.wav” WAVE
TRACK 03 AUDIO
TITLE “Sorrow’s Child”
PERFORMER “Nick Cave & The Bad Seeds”
INDEX 01 00:00:00
TRACK 04 AUDIO
TITLE “The Weeping Song”
PERFORMER “Nick Cave & The Bad Seeds”
INDEX 00 04:37:25
FILE “04. The Weeping Song.wav” WAVE
INDEX 01 00:00:00
TRACK 05 AUDIO
TITLE “The Ship Song”
PERFORMER “Nick Cave & The Bad Seeds”
INDEX 00 04:21:72
FILE “05. The Ship Song.wav” WAVE
INDEX 01 00:00:00
FILE “06. The Hammer Song.wav” WAVE
TRACK 06 AUDIO
TITLE “The Hammer Song”
PERFORMER “Nick Cave & The Bad Seeds”
INDEX 01 00:00:00
FILE “07. Lament.wav” WAVE
TRACK 07 AUDIO
TITLE “Lament”
PERFORMER “Nick Cave & The Bad Seeds”
INDEX 01 00:00:00
TRACK 08 AUDIO
TITLE “The Witness Song”
PERFORMER “Nick Cave & The Bad Seeds”
INDEX 00 04:51:70
FILE “08. The Witness Song.wav” WAVE
INDEX 01 00:00:00
FILE “09. Lucy.wav” WAVE
TRACK 09 AUDIO
TITLE “Lucy”
PERFORMER “Nick Cave & The Bad Seeds”
INDEX 01 00:00:00
FILE “10. The Train Song.wav” WAVE
TRACK 10 AUDIO
TITLE “The Train Song”
PERFORMER “Nick Cave & The Bad Seeds”
INDEX 01 00:00:00

Leave a Reply

Your email address will not be published. Required fields are marked *

This site uses Akismet to reduce spam. Learn how your comment data is processed.