Nick Cave & The Bad Seeds – The Firstborn Is Dead (Japanese Edition)




Artist: Nick Cave & The Bad Seeds
Year: 1985/1996
Genre: Rock
Notes: Discogs
Add. Notes: Japanese Edition
Cover incl.: Yes
Encoder: FLAC
Bitrate: ~800 kBit/s (44.1 kHz/16 Bit/s)
Log & Cue incl.: Yes
Size: 347,24 MB
Password: “slam” (without ” “)


All Downloads/Hosters are compatible

Download 1
Turbobit.net
Rapidgator.net
UploadByte.com
UploadEver.com
JustUpload.io
Download 2
Turbobit.net
Rapidgator.net
UploadByte.com
UploadEver.com
JustUpload.io
Download 3
Turbobit.net
Rapidgator.net
UploadByte.com
UploadEver.com
JustUpload.io

Tracklist:

1 - Tupelo - 7:14
2 - Say Goodbye To The Little Girl Tree - 5:09
3 - Train Long-Suffering - 3:48
4 - Black Crow King - 5:03
5 - Knockin' On Joe - 7:37
6 - Wanted Man - 5:27
7 - Blind Lemon Jefferson - 6:08
8 - The Six Strings That Drew Blood - 4:47
9 - Tupelo (Single Version) - 5:01

EAC-Log, CUE-Sheed & NFO:

Click to open spoiler
Exact Audio Copy V1.1 from 23. June 2015

EAC extraction logfile from 10. January 2016, 5:49

Nick Cave & The Bad Seeds / The Firstborn Is Dead [1996, PCCY-00916]

Used drive : ASUS DRW-22B3S Adapter: 1 ID: 0

Read mode : Secure
Utilize accurate stream : Yes
Defeat audio cache : Yes
Make use of C2 pointers : No

Read offset correction : 6
Overread into Lead-In and Lead-Out : No
Fill up missing offset samples with silence : Yes
Delete leading and trailing silent blocks : No
Null samples used in CRC calculations : Yes
Used interface : Native Win32 interface for Win NT & 2000
Gap handling : Appended to previous track

Used output format : User Defined Encoder
Selected bitrate : 768 kBit/s
Quality : High
Add ID3 tag : No
Command line compressor : C:\Program Files\Exact Audio Copy\FLAC\FLAC.EXE
Additional command line options : -V -8 -T “Genre=%genre%” -T “Artist=%artist%” -T “Title=%title%” -T “Album=%albumtitle%” -T “Date=%year%” -T “Tracknumber=%tracknr%” -T “Comment=%comment%” %source%

TOC of the extracted CD

Track | Start | Length | Start sector | End sector
———————————————————
1 | 0:00.00 | 7:17.62 | 0 | 32836
2 | 7:17.62 | 5:10.23 | 32837 | 56109
3 | 12:28.10 | 3:49.10 | 56110 | 73294
4 | 16:17.20 | 5:05.57 | 73295 | 96226
5 | 21:23.02 | 7:38.55 | 96227 | 130631
6 | 29:01.57 | 5:27.50 | 130632 | 155206
7 | 34:29.32 | 6:10.45 | 155207 | 183001
8 | 40:40.02 | 4:49.70 | 183002 | 204746
9 | 45:29.72 | 5:01.33 | 204747 | 227354

Track 1

Filename H:\g.y.m\Nick Cave & The Bad Seeds\1985 – The Firstborn Is Dead [1996, PCCY-00916]\01. Tupelo.wav

Pre-gap length 0:00:02.00

Peak level 84.3 %
Extraction speed 5.6 X
Track quality 100.0 %
Test CRC 9C7C2A97
Copy CRC 9C7C2A97
Accurately ripped (confidence 2) [C3A08977] (AR v2)
Copy OK

Track 2

Filename H:\g.y.m\Nick Cave & The Bad Seeds\1985 – The Firstborn Is Dead [1996, PCCY-00916]\02. Say Goodbye To The Little Girl Tree.wav

Pre-gap length 0:00:02.72

Peak level 94.8 %
Extraction speed 6.2 X
Track quality 100.0 %
Test CRC DD4D014C
Copy CRC DD4D014C
Accurately ripped (confidence 2) [39E09CBF] (AR v2)
Copy OK

Track 3

Filename H:\g.y.m\Nick Cave & The Bad Seeds\1985 – The Firstborn Is Dead [1996, PCCY-00916]\03. Train Long-Suffering.wav

Pre-gap length 0:00:01.10

Peak level 94.5 %
Extraction speed 6.5 X
Track quality 100.0 %
Test CRC B19C916B
Copy CRC B19C916B
Accurately ripped (confidence 2) [2D715E18] (AR v2)
Copy OK

Track 4

Filename H:\g.y.m\Nick Cave & The Bad Seeds\1985 – The Firstborn Is Dead [1996, PCCY-00916]\04. Black Crow King.wav

Pre-gap length 0:00:01.10

Peak level 92.6 %
Extraction speed 6.2 X
Track quality 99.9 %
Test CRC F7976EF5
Copy CRC F7976EF5
Accurately ripped (confidence 2) [A71E6E1F] (AR v2)
Copy OK

Track 5

Filename H:\g.y.m\Nick Cave & The Bad Seeds\1985 – The Firstborn Is Dead [1996, PCCY-00916]\05. Knockin’ On Joe.wav

Pre-gap length 0:00:02.22

Peak level 90.7 %
Extraction speed 8.0 X
Track quality 100.0 %
Test CRC C5EDBF0D
Copy CRC C5EDBF0D
Accurately ripped (confidence 2) [0F2F9732] (AR v2)
Copy OK

Track 6

Filename H:\g.y.m\Nick Cave & The Bad Seeds\1985 – The Firstborn Is Dead [1996, PCCY-00916]\06. Wanted Man.wav

Pre-gap length 0:00:01.32

Peak level 82.1 %
Extraction speed 7.2 X
Track quality 99.9 %
Test CRC C395D0FB
Copy CRC C395D0FB
Accurately ripped (confidence 2) [2C665B66] (AR v2)
Copy OK

Track 7

Filename H:\g.y.m\Nick Cave & The Bad Seeds\1985 – The Firstborn Is Dead [1996, PCCY-00916]\07. Blind Lemon Jefferson.wav

Peak level 86.0 %
Extraction speed 9.0 X
Track quality 100.0 %
Test CRC 56945385
Copy CRC 56945385
Accurately ripped (confidence 2) [E943339C] (AR v2)
Copy OK

Track 8

Filename H:\g.y.m\Nick Cave & The Bad Seeds\1985 – The Firstborn Is Dead [1996, PCCY-00916]\08. The Six Strings That Drew Blood.wav

Pre-gap length 0:00:02.40

Peak level 70.8 %
Extraction speed 9.1 X
Track quality 100.0 %
Test CRC 0FD13F5D
Copy CRC 0FD13F5D
Accurately ripped (confidence 2) [F7C4DC2F] (AR v2)
Copy OK

Track 9

Filename H:\g.y.m\Nick Cave & The Bad Seeds\1985 – The Firstborn Is Dead [1996, PCCY-00916]\09. Tupelo (Single Version).wav

Pre-gap length 0:00:02.45

Peak level 84.3 %
Extraction speed 8.1 X
Track quality 99.9 %
Test CRC 5B3C1011
Copy CRC 5B3C1011
Accurately ripped (confidence 2) [4C0D3EF8] (AR v2)
Copy OK

All tracks accurately ripped

No errors occurred

End of status report

==== Log checksum 558C65E16AB84A735182C765167951C79357458DEFB3C74B3EDD262EB568521F ====

REM GENRE “Alternative Rock”
REM DATE 1985
REM DISCID 790BD709
REM COMMENT “ExactAudioCopy v1.1”
PERFORMER “Nick Cave & The Bad Seeds”
TITLE “The Firstborn Is Dead [1996, PCCY-00916]”
FILE “01. Tupelo.wav” WAVE
TRACK 01 AUDIO
TITLE “Tupelo”
PERFORMER “Nick Cave & The Bad Seeds”
INDEX 01 00:00:00
TRACK 02 AUDIO
TITLE “Say Goodbye To The Little Girl Tree”
PERFORMER “Nick Cave & The Bad Seeds”
INDEX 00 07:14:65
FILE “02. Say Goodbye To The Little Girl Tree.wav” WAVE
INDEX 01 00:00:00
TRACK 03 AUDIO
TITLE “Train Long-Suffering”
PERFORMER “Nick Cave & The Bad Seeds”
INDEX 00 05:09:13
FILE “03. Train Long-Suffering.wav” WAVE
INDEX 01 00:00:00
TRACK 04 AUDIO
TITLE “Black Crow King”
PERFORMER “Nick Cave & The Bad Seeds”
INDEX 00 03:48:00
FILE “04. Black Crow King.wav” WAVE
INDEX 01 00:00:00
TRACK 05 AUDIO
TITLE “Knockin’ On Joe”
PERFORMER “Nick Cave & The Bad Seeds”
INDEX 00 05:03:35
FILE “05. Knockin’ On Joe.wav” WAVE
INDEX 01 00:00:00
TRACK 06 AUDIO
TITLE “Wanted Man”
PERFORMER “Nick Cave & The Bad Seeds”
INDEX 00 07:37:23
FILE “06. Wanted Man.wav” WAVE
INDEX 01 00:00:00
FILE “07. Blind Lemon Jefferson.wav” WAVE
TRACK 07 AUDIO
TITLE “Blind Lemon Jefferson”
PERFORMER “Nick Cave & The Bad Seeds”
INDEX 01 00:00:00
TRACK 08 AUDIO
TITLE “The Six Strings That Drew Blood”
PERFORMER “Nick Cave & The Bad Seeds”
INDEX 00 06:08:05
FILE “08. The Six Strings That Drew Blood.wav” WAVE
INDEX 01 00:00:00
TRACK 09 AUDIO
TITLE “Tupelo (Single Version)”
PERFORMER “Nick Cave & The Bad Seeds”
INDEX 00 04:47:25
FILE “09. Tupelo (Single Version).wav” WAVE
INDEX 01 00:00:00

Leave a Reply

Your email address will not be published. Required fields are marked *

This site uses Akismet to reduce spam. Learn how your comment data is processed.