Nick Cave & The Bad Seeds – The Boatman’s Call (Japanese Edition)




Artist: Nick Cave & The Bad Seeds
Year: 1997
Genre: Rock
Notes: Discogs
Add. Notes: Japanese Edition
Encoder: FLAC
Bitrate: ~700 kBit/s (44.1 kHz/16 Bit/s)
Bin/Cue incl.: Yes
Size: 429,08 MB
Password: “slam” (without ” “)


http://www.share-online.biz/dl/M9R4EVRP9SJ

https://rapidgator.net/file/6d6a7e1c7499665f8db08df04c70ddd5

https://uploadbyte.com/p425qe6ggifk

https://uploadever.com/zcnxzfpvxvko

https://justupload.io/q74maqugjc2b

Tracklist:

1 - Into My Arms - 4:15
2 - Lime Tree Arbour - 2:56
3 - People Ain't No Good - 5:42
4 - Brompton Oratory - 4:06
5 - There Is A Kingdom - 4:52
6 - (Are You) The One That I've Been Waiting For? - 4:05
7 - Where Do We Go Now But Nowhere? - 5:46
8 - West Country Girl - 2:45
9 - Black Hair - 4:14
10 - Idiot Prayer - 4:21
11 - Far From Me - 5:33
12 - Green Eyes - 3:32
13 - Little Empty Boat - 4:28
14 - Right Now I'm A-Roaming - 4:20

EAC-Log, CUE-Sheed & NFO:

Click to open spoiler
Exact Audio Copy V1.0 beta 6 from 9. April 2015

EAC extraction logfile from 23. May 2015, 18:27

Nick Cave & The Bad Seeds / The Boatman’s Call [TOCP-50190]

Used drive : ASUS DRW-22B3S Adapter: 1 ID: 0

Read mode : Secure
Utilize accurate stream : Yes
Defeat audio cache : Yes
Make use of C2 pointers : No

Read offset correction : 6
Overread into Lead-In and Lead-Out : No
Fill up missing offset samples with silence : Yes
Delete leading and trailing silent blocks : No
Null samples used in CRC calculations : Yes
Used interface : Native Win32 interface for Win NT & 2000
Gap handling : Appended to previous track

Used output format : User Defined Encoder
Selected bitrate : 768 kBit/s
Quality : High
Add ID3 tag : No
Command line compressor : C:\Program Files\Exact Audio Copy\FLAC\FLAC.EXE
Additional command line options : -V -8 -T “Genre=%genre%” -T “Artist=%artist%” -T “Title=%title%” -T “Album=%albumtitle%” -T “Date=%year%” -T “Tracknumber=%tracknr%” -T “Comment=%comment%” %source%

TOC of the extracted CD

Track | Start | Length | Start sector | End sector
———————————————————
1 | 0:00.00 | 4:15.62 | 0 | 19186
2 | 4:15.62 | 2:56.68 | 19187 | 32454
3 | 7:12.55 | 5:42.00 | 32455 | 58104
4 | 12:54.55 | 4:06.40 | 58105 | 76594
5 | 17:01.20 | 4:52.57 | 76595 | 98551
6 | 21:54.02 | 4:05.35 | 98552 | 116961
7 | 25:59.37 | 5:46.08 | 116962 | 142919
8 | 31:45.45 | 2:45.65 | 142920 | 155359
9 | 34:31.35 | 4:14.12 | 155360 | 174421
10 | 38:45.47 | 4:21.60 | 174422 | 194056
11 | 43:07.32 | 5:33.63 | 194057 | 219094
12 | 48:41.20 | 3:34.57 | 219095 | 235201
13 | 52:16.02 | 4:28.13 | 235202 | 255314
14 | 56:44.15 | 4:20.35 | 255315 | 274849

Track 1

Filename H:\g.y.m\Nick Cave & The Bad Seeds\1997 – The Boatman’s Call [TOCP-50190]\01. Into My Arms.wav

Pre-gap length 0:00:02.00

Peak level 99.9 %
Extraction speed 5.3 X
Track quality 100.0 %
Test CRC 4E7BFF01
Copy CRC 4E7BFF01
Cannot be verified as accurate (confidence 1) [5A0FAE69], AccurateRip returned [B07780F5] (AR v2)
Copy OK

Track 2

Filename H:\g.y.m\Nick Cave & The Bad Seeds\1997 – The Boatman’s Call [TOCP-50190]\02. Lime Tree Arbour.wav

Pre-gap length 0:00:03.17

Peak level 100.0 %
Extraction speed 5.6 X
Track quality 100.0 %
Test CRC 7B81450B
Copy CRC 7B81450B
Cannot be verified as accurate (confidence 1) [E965D638], AccurateRip returned [1E36ED5C] (AR v2)
Copy OK

Track 3

Filename H:\g.y.m\Nick Cave & The Bad Seeds\1997 – The Boatman’s Call [TOCP-50190]\03. People Ain’t No Good.wav

Pre-gap length 0:00:01.10

Peak level 100.0 %
Extraction speed 6.5 X
Track quality 100.0 %
Test CRC 0CB121AF
Copy CRC 0CB121AF
Cannot be verified as accurate (confidence 1) [6D34C49A], AccurateRip returned [A1347531] (AR v2)
Copy OK

Track 4

Filename H:\g.y.m\Nick Cave & The Bad Seeds\1997 – The Boatman’s Call [TOCP-50190]\04. Brompton Oratory.wav

Pre-gap length 0:00:02.28

Peak level 100.0 %
Extraction speed 6.9 X
Track quality 100.0 %
Test CRC 631945D4
Copy CRC 631945D4
Cannot be verified as accurate (confidence 1) [69065648], AccurateRip returned [A1954520] (AR v2)
Copy OK

Track 5

Filename H:\g.y.m\Nick Cave & The Bad Seeds\1997 – The Boatman’s Call [TOCP-50190]\05. There Is A Kingdom.wav

Pre-gap length 0:00:02.28

Peak level 100.0 %
Extraction speed 7.5 X
Track quality 100.0 %
Test CRC DA48FF9B
Copy CRC DA48FF9B
Cannot be verified as accurate (confidence 1) [5401B45D], AccurateRip returned [1C639660] (AR v2)
Copy OK

Track 6

Filename H:\g.y.m\Nick Cave & The Bad Seeds\1997 – The Boatman’s Call [TOCP-50190]\06. (Are You) The One That I’ve Been Waiting For.wav

Peak level 94.2 %
Extraction speed 7.8 X
Track quality 100.0 %
Test CRC E13864BD
Copy CRC E13864BD
Cannot be verified as accurate (confidence 1) [79A02C6E], AccurateRip returned [E44D69C1] (AR v2)
Copy OK

Track 7

Filename H:\g.y.m\Nick Cave & The Bad Seeds\1997 – The Boatman’s Call [TOCP-50190]\07. Where Do We Go Now But Nowhere.wav

Peak level 100.0 %
Extraction speed 8.5 X
Track quality 100.0 %
Test CRC E47B046F
Copy CRC E47B046F
Cannot be verified as accurate (confidence 1) [F83002FB], AccurateRip returned [9ABBF1AE] (AR v2)
Copy OK

Track 8

Filename H:\g.y.m\Nick Cave & The Bad Seeds\1997 – The Boatman’s Call [TOCP-50190]\08. West Country Girl.wav

Pre-gap length 0:00:01.70

Peak level 89.6 %
Extraction speed 8.0 X
Track quality 100.0 %
Test CRC CA3F5CC4
Copy CRC CA3F5CC4
Cannot be verified as accurate (confidence 1) [3940A055], AccurateRip returned [9D1BFB28] (AR v2)
Copy OK

Track 9

Filename H:\g.y.m\Nick Cave & The Bad Seeds\1997 – The Boatman’s Call [TOCP-50190]\09. Black Hair.wav

Pre-gap length 0:00:02.10

Peak level 100.0 %
Extraction speed 8.9 X
Track quality 100.0 %
Test CRC B33FB13C
Copy CRC B33FB13C
Cannot be verified as accurate (confidence 1) [4E566234], AccurateRip returned [F0CD969E] (AR v2)
Copy OK

Track 10

Filename H:\g.y.m\Nick Cave & The Bad Seeds\1997 – The Boatman’s Call [TOCP-50190]\10. Idiot Prayer.wav

Pre-gap length 0:00:03.07

Peak level 100.0 %
Extraction speed 9.2 X
Track quality 100.0 %
Test CRC E9E75F73
Copy CRC E9E75F73
Cannot be verified as accurate (confidence 1) [9FAA04FC], AccurateRip returned [B7169BC6] (AR v2)
Copy OK

Track 11

Filename H:\g.y.m\Nick Cave & The Bad Seeds\1997 – The Boatman’s Call [TOCP-50190]\11. Far From Me.wav

Pre-gap length 0:00:02.62

Peak level 90.2 %
Extraction speed 9.9 X
Track quality 100.0 %
Test CRC ACEDCB14
Copy CRC ACEDCB14
Cannot be verified as accurate (confidence 1) [BB19D59A], AccurateRip returned [EB2AA98C] (AR v2)
Copy OK

Track 12

Filename H:\g.y.m\Nick Cave & The Bad Seeds\1997 – The Boatman’s Call [TOCP-50190]\12. Green Eyes.wav

Pre-gap length 0:00:02.63

Peak level 97.7 %
Extraction speed 7.8 X
Track quality 99.9 %
Test CRC 58683A87
Copy CRC 58683A87
Cannot be verified as accurate (confidence 1) [10B3594A], AccurateRip returned [63A3F3D0] (AR v2)
Copy OK

Track 13

Filename H:\g.y.m\Nick Cave & The Bad Seeds\1997 – The Boatman’s Call [TOCP-50190]\13. Little Empty Boat.wav

Pre-gap length 0:00:02.50

Peak level 79.4 %
Extraction speed 10.2 X
Track quality 100.0 %
Test CRC 15B2E9C3
Copy CRC 15B2E9C3
Cannot be verified as accurate (confidence 1) [7FAF3E60], AccurateRip returned [CAC8A0D5] (AR v2)
Copy OK

Track 14

Filename H:\g.y.m\Nick Cave & The Bad Seeds\1997 – The Boatman’s Call [TOCP-50190]\14. Right Now I’m A-Roaming.wav

Pre-gap length 0:00:02.50

Peak level 62.9 %
Extraction speed 10.5 X
Track quality 100.0 %
Test CRC E2C24688
Copy CRC E2C24688
Cannot be verified as accurate (confidence 1) [BC9CD08D], AccurateRip returned [7DBF6746] (AR v2)
Copy OK

No tracks could be verified as accurate
You may have a different pressing from the one(s) in the database

No errors occurred

End of status report

==== Log checksum 3DD6C985143390748DB6308E3DE2D438B79EA5614218944D69E0BBA55F37BADC ====

REM GENRE “Alternative Rock”
REM DATE 1997
REM DISCID BC0E500E
REM COMMENT “ExactAudioCopy v1.0b6”
PERFORMER “Nick Cave & The Bad Seeds”
TITLE “The Boatman’s Call [TOCP-50190]”
FILE “01. Into My Arms.wav” WAVE
TRACK 01 AUDIO
TITLE “Into My Arms”
PERFORMER “Nick Cave & The Bad Seeds”
INDEX 01 00:00:00
TRACK 02 AUDIO
TITLE “Lime Tree Arbour”
PERFORMER “Nick Cave & The Bad Seeds”
INDEX 00 04:12:45
FILE “02. Lime Tree Arbour.wav” WAVE
INDEX 01 00:00:00
TRACK 03 AUDIO
TITLE “People Ain’t No Good”
PERFORMER “Nick Cave & The Bad Seeds”
INDEX 00 02:55:58
FILE “03. People Ain’t No Good.wav” WAVE
INDEX 01 00:00:00
TRACK 04 AUDIO
TITLE “Brompton Oratory”
PERFORMER “Nick Cave & The Bad Seeds”
INDEX 00 05:39:47
FILE “04. Brompton Oratory.wav” WAVE
INDEX 01 00:00:00
TRACK 05 AUDIO
TITLE “There Is A Kingdom”
PERFORMER “Nick Cave & The Bad Seeds”
INDEX 00 04:04:12
FILE “05. There Is A Kingdom.wav” WAVE
INDEX 01 00:00:00
FILE “06. (Are You) The One That I’ve Been Waiting For.wav” WAVE
TRACK 06 AUDIO
TITLE “(Are You) The One That I’ve Been Waiting For?”
PERFORMER “Nick Cave & The Bad Seeds”
INDEX 01 00:00:00
FILE “07. Where Do We Go Now But Nowhere.wav” WAVE
TRACK 07 AUDIO
TITLE “Where Do We Go Now But Nowhere?”
PERFORMER “Nick Cave & The Bad Seeds”
INDEX 01 00:00:00
TRACK 08 AUDIO
TITLE “West Country Girl”
PERFORMER “Nick Cave & The Bad Seeds”
INDEX 00 05:44:13
FILE “08. West Country Girl.wav” WAVE
INDEX 01 00:00:00
TRACK 09 AUDIO
TITLE “Black Hair”
PERFORMER “Nick Cave & The Bad Seeds”
INDEX 00 02:43:55
FILE “09. Black Hair.wav” WAVE
INDEX 01 00:00:00
TRACK 10 AUDIO
TITLE “Idiot Prayer”
PERFORMER “Nick Cave & The Bad Seeds”
INDEX 00 04:11:05
FILE “10. Idiot Prayer.wav” WAVE
INDEX 01 00:00:00
TRACK 11 AUDIO
TITLE “Far From Me”
PERFORMER “Nick Cave & The Bad Seeds”
INDEX 00 04:18:73
FILE “11. Far From Me.wav” WAVE
INDEX 01 00:00:00
TRACK 12 AUDIO
TITLE “Green Eyes”
PERFORMER “Nick Cave & The Bad Seeds”
INDEX 00 05:31:00
FILE “12. Green Eyes.wav” WAVE
INDEX 01 00:00:00
TRACK 13 AUDIO
TITLE “Little Empty Boat”
PERFORMER “Nick Cave & The Bad Seeds”
INDEX 00 03:32:07
FILE “13. Little Empty Boat.wav” WAVE
INDEX 01 00:00:00
TRACK 14 AUDIO
TITLE “Right Now I’m A-Roaming”
PERFORMER “Nick Cave & The Bad Seeds”
INDEX 00 04:25:38
FILE “14. Right Now I’m A-Roaming.wav” WAVE
INDEX 01 00:00:00

Leave a Reply

Your email address will not be published. Required fields are marked *

This site uses Akismet to reduce spam. Learn how your comment data is processed.