Nick Cave & The Bad Seeds – The Abattoir Blues Tour




Artist: Nick Cave & The Bad Seeds
Year: 2007
Genre: Rock
Notes: Discogs
Add. Notes:
Encoder: FLAC
Bitrate: ~800 kBit/s (44.1 kHz/16 Bit/s)
Bin/Cue incl.: Yes
Size: 736,13 MB
Password: “slam” (without ” “)


http://www.share-online.biz/dl/ULSFYSRPS4
http://www.share-online.biz/dl/QGYFYSRPW6
https://rapidgator.net/file/242c9ebf13bd4c77ae997a062ecbb5df
https://rapidgator.net/file/c8703e687f13c340d12adfdcb0f9dfd9
https://uploadbyte.com/09bvaker3571
https://uploadbyte.com/91qkwdi92tvj
https://justupload.io/1b3xh8pexbhq
https://justupload.io/9lj15n166i0d
https://uploadever.com/vvneibwbyqmh
https://uploadever.com/zrkbluyve63m

Tracklist:

The Abattoir Blues Tour 2004
CD1-1 - O Children - 6:59
CD1-2 - Hiding All Away - 6:23
CD1-3 - Breathless - 3:37
CD1-4 - Get Ready For Love - 5:00
CD1-5 - Red Right Hand - 5:25
CD1-6 - The Ship Song - 4:10
CD1-7 - The Weeping Song - 4:39
CD1-8 - Stagger Lee - 8:44
CD2-1 - Carry Me - 4:49
CD2-2 - Let The Bells Ring - 4:55
CD2-3 - Easy Money - 7:09
CD2.4 - Supernaturally - 5:13
CD2-5 - Babe, You Turn Me On - 5:08
CD2-6 - There She Goes, My Beautiful World - 5:30
CD2-7 - God Is In The House - 4:46
CD2-8 - Deanna - 3:43
CD2-9 - Lay Me Low - 5:49

EAC-Log, CUE-Sheed & NFO:

Click to open spoiler
Exact Audio Copy V1.0 beta 3 from 29. August 2011

EAC extraction logfile from 15. December 2013, 21:36

Nick Cave & The Bad Seeds / The Abattoir Blues Tour [724596935224]

Used drive : ASUS DRW-22B3S Adapter: 3 ID: 1

Read mode : Secure
Utilize accurate stream : Yes
Defeat audio cache : Yes
Make use of C2 pointers : No

Read offset correction : 6
Overread into Lead-In and Lead-Out : No
Fill up missing offset samples with silence : Yes
Delete leading and trailing silent blocks : No
Null samples used in CRC calculations : Yes
Used interface : Installed external ASPI interface
Gap handling : Appended to previous track

Used output format : User Defined Encoder
Selected bitrate : 768 kBit/s
Quality : High
Add ID3 tag : No
Command line compressor : C:\Program Files\Exact Audio Copy\FLAC\FLAC.EXE
Additional command line options : -V -8 -T “Genre=%genre%” -T “Artist=%artist%” -T “Title=%title%” -T “Album=%albumtitle%” -T “Date=%year%” -T “Tracknumber=%tracknr%” -T “Comment=%comment%” %source%

TOC of the extracted CD

Track | Start | Length | Start sector | End sector
———————————————————
1 | 0:00.00 | 6:59.07 | 0 | 31431
2 | 6:59.07 | 6:23.25 | 31432 | 60181
3 | 13:22.32 | 3:36.57 | 60182 | 76438
4 | 16:59.14 | 4:59.46 | 76439 | 98909
5 | 21:58.60 | 5:24.50 | 98910 | 123259
6 | 27:23.35 | 4:09.51 | 123260 | 141985
7 | 31:33.11 | 4:39.22 | 141986 | 162932
8 | 36:12.33 | 8:44.02 | 162933 | 202234

Track 1

Filename H:\gym1974 (rutracker.org)\Nick Cave & The Bad Seeds\2007 – The Abattoir Blues Tour [724596935224]\CD 1\01. O Children.wav

Pre-gap length 0:00:02.00

Peak level 100.0 %
Extraction speed 2.0 X
Track quality 100.0 %
Test CRC B165CF46
Copy CRC B165CF46
Accurately ripped (confidence 21) [C8B13C72] (AR v2)
Copy OK

Track 2

Filename H:\gym1974 (rutracker.org)\Nick Cave & The Bad Seeds\2007 – The Abattoir Blues Tour [724596935224]\CD 1\02. Hiding All Away.wav

Peak level 98.6 %
Extraction speed 2.3 X
Track quality 100.0 %
Test CRC AD3FA927
Copy CRC AD3FA927
Accurately ripped (confidence 21) [9B29D4B9] (AR v2)
Copy OK

Track 3

Filename H:\gym1974 (rutracker.org)\Nick Cave & The Bad Seeds\2007 – The Abattoir Blues Tour [724596935224]\CD 1\03. Breathless.wav

Pre-gap length 0:00:00.56

Peak level 100.0 %
Extraction speed 1.7 X
Track quality 99.9 %
Test CRC AB729D0E
Copy CRC AB729D0E
Accurately ripped (confidence 21) [CE5E553B] (AR v2)
Copy OK

Track 4

Filename H:\gym1974 (rutracker.org)\Nick Cave & The Bad Seeds\2007 – The Abattoir Blues Tour [724596935224]\CD 1\04. Get Ready For Love.wav

Pre-gap length 0:00:00.28

Peak level 100.0 %
Extraction speed 2.6 X
Track quality 100.0 %
Test CRC 9A2202B9
Copy CRC 9A2202B9
Accurately ripped (confidence 21) [5156D011] (AR v2)
Copy OK

Track 5

Filename H:\gym1974 (rutracker.org)\Nick Cave & The Bad Seeds\2007 – The Abattoir Blues Tour [724596935224]\CD 1\05. Red Right Hand.wav

Peak level 99.4 %
Extraction speed 2.2 X
Track quality 99.9 %
Test CRC 42C00E38
Copy CRC 42C00E38
Accurately ripped (confidence 21) [1BBA2251] (AR v2)
Copy OK

Track 6

Filename H:\gym1974 (rutracker.org)\Nick Cave & The Bad Seeds\2007 – The Abattoir Blues Tour [724596935224]\CD 1\06. The Ship Song.wav

Peak level 100.0 %
Extraction speed 2.2 X
Track quality 99.9 %
Test CRC A69DE76E
Copy CRC A69DE76E
Accurately ripped (confidence 21) [715119EF] (AR v2)
Copy OK

Track 7

Filename H:\gym1974 (rutracker.org)\Nick Cave & The Bad Seeds\2007 – The Abattoir Blues Tour [724596935224]\CD 1\07. The Weeping Song.wav

Pre-gap length 0:00:00.06

Peak level 100.0 %
Extraction speed 3.1 X
Track quality 100.0 %
Test CRC 9730BE9A
Copy CRC 9730BE9A
Accurately ripped (confidence 21) [7361EC29] (AR v2)
Copy OK

Track 8

Filename H:\gym1974 (rutracker.org)\Nick Cave & The Bad Seeds\2007 – The Abattoir Blues Tour [724596935224]\CD 1\08. Stagger Lee.wav

Peak level 100.0 %
Extraction speed 3.6 X
Track quality 100.0 %
Test CRC 5EF5B314
Copy CRC 5EF5B314
Accurately ripped (confidence 21) [86955FE5] (AR v2)
Copy OK

All tracks accurately ripped

No errors occurred

End of status report

==== Log checksum 176A15A21A83CDB6D9AF78BC12EDEA0B793F58107026202F4CE1E132DE9C0716 ====

Exact Audio Copy V1.0 beta 3 from 29. August 2011

EAC extraction logfile from 15. December 2013, 22:33

Nick Cave & The Bad Seeds / The Abattoir Blues Tour [724596935224]

Used drive : ASUS DRW-22B3S Adapter: 3 ID: 1

Read mode : Secure
Utilize accurate stream : Yes
Defeat audio cache : Yes
Make use of C2 pointers : No

Read offset correction : 6
Overread into Lead-In and Lead-Out : No
Fill up missing offset samples with silence : Yes
Delete leading and trailing silent blocks : No
Null samples used in CRC calculations : Yes
Used interface : Installed external ASPI interface
Gap handling : Appended to previous track

Used output format : User Defined Encoder
Selected bitrate : 768 kBit/s
Quality : High
Add ID3 tag : No
Command line compressor : C:\Program Files\Exact Audio Copy\FLAC\FLAC.EXE
Additional command line options : -V -8 -T “Genre=%genre%” -T “Artist=%artist%” -T “Title=%title%” -T “Album=%albumtitle%” -T “Date=%year%” -T “Tracknumber=%tracknr%” -T “Comment=%comment%” %source%

TOC of the extracted CD

Track | Start | Length | Start sector | End sector
———————————————————
1 | 0:00.00 | 4:49.30 | 0 | 21704
2 | 4:49.30 | 4:55.07 | 21705 | 43836
3 | 9:44.37 | 7:08.65 | 43837 | 76001
4 | 16:53.27 | 5:13.20 | 76002 | 99496
5 | 22:06.47 | 5:08.25 | 99497 | 122621
6 | 27:14.72 | 5:29.59 | 122622 | 147355
7 | 32:44.56 | 4:46.07 | 147356 | 168812
8 | 37:30.63 | 3:43.30 | 168813 | 185567
9 | 41:14.18 | 5:48.66 | 185568 | 211733

Track 1

Filename H:\gym1974 (rutracker.org)\Nick Cave & The Bad Seeds\2007 – The Abattoir Blues Tour [724596935224]\CD 2\01. Carry Me.wav

Pre-gap length 0:00:02.00

Peak level 100.0 %
Extraction speed 1.9 X
Track quality 100.0 %
Test CRC 8894A3DC
Copy CRC 8894A3DC
Accurately ripped (confidence 20) [A8374FA2] (AR v2)
Copy OK

Track 2

Filename H:\gym1974 (rutracker.org)\Nick Cave & The Bad Seeds\2007 – The Abattoir Blues Tour [724596935224]\CD 2\02. Let The Bells Ring.wav

Pre-gap length 0:00:00.04

Peak level 100.0 %
Extraction speed 2.1 X
Track quality 100.0 %
Test CRC 1797603B
Copy CRC 1797603B
Accurately ripped (confidence 20) [F10AD2F3] (AR v2)
Copy OK

Track 3

Filename H:\gym1974 (rutracker.org)\Nick Cave & The Bad Seeds\2007 – The Abattoir Blues Tour [724596935224]\CD 2\03. Easy Money.wav

Pre-gap length 0:00:00.05

Peak level 100.0 %
Extraction speed 2.5 X
Track quality 100.0 %
Test CRC 3B24BE32
Copy CRC 3B24BE32
Accurately ripped (confidence 20) [4D14C3A3] (AR v2)
Copy OK

Track 4

Filename H:\gym1974 (rutracker.org)\Nick Cave & The Bad Seeds\2007 – The Abattoir Blues Tour [724596935224]\CD 2\04. Supernaturally.wav

Pre-gap length 0:00:00.01

Peak level 100.0 %
Extraction speed 2.7 X
Track quality 100.0 %
Test CRC 4B020A5E
Copy CRC 4B020A5E
Accurately ripped (confidence 20) [55260957] (AR v2)
Copy OK

Track 5

Filename H:\gym1974 (rutracker.org)\Nick Cave & The Bad Seeds\2007 – The Abattoir Blues Tour [724596935224]\CD 2\05. Babe, You Turn Me On.wav

Pre-gap length 0:00:00.01

Peak level 98.7 %
Extraction speed 2.9 X
Track quality 100.0 %
Test CRC 5D373623
Copy CRC 5D373623
Accurately ripped (confidence 20) [2678CAF4] (AR v2)
Copy OK

Track 6

Filename H:\gym1974 (rutracker.org)\Nick Cave & The Bad Seeds\2007 – The Abattoir Blues Tour [724596935224]\CD 2\06. There She Goes, My Beautiful World.wav

Peak level 100.0 %
Extraction speed 3.1 X
Track quality 100.0 %
Test CRC BD8312FD
Copy CRC BD8312FD
Accurately ripped (confidence 20) [7335E971] (AR v2)
Copy OK

Track 7

Filename H:\gym1974 (rutracker.org)\Nick Cave & The Bad Seeds\2007 – The Abattoir Blues Tour [724596935224]\CD 2\07. God Is In The House.wav

Peak level 99.9 %
Extraction speed 3.2 X
Track quality 100.0 %
Test CRC 53D83601
Copy CRC 53D83601
Accurately ripped (confidence 20) [1D4713B8] (AR v2)
Copy OK

Track 8

Filename H:\gym1974 (rutracker.org)\Nick Cave & The Bad Seeds\2007 – The Abattoir Blues Tour [724596935224]\CD 2\08. Deanna.wav

Pre-gap length 0:00:00.03

Peak level 100.0 %
Extraction speed 2.3 X
Track quality 99.9 %
Test CRC E4987014
Copy CRC E4987014
Accurately ripped (confidence 19) [CB81895B] (AR v2)
Copy OK

Track 9

Filename H:\gym1974 (rutracker.org)\Nick Cave & The Bad Seeds\2007 – The Abattoir Blues Tour [724596935224]\CD 2\09. Lay Me Low.wav

Peak level 99.3 %
Extraction speed 3.5 X
Track quality 100.0 %
Test CRC ED7BC27D
Copy CRC ED7BC27D
Accurately ripped (confidence 20) [07FC982C] (AR v2)
Copy OK

All tracks accurately ripped

No errors occurred

End of status report

==== Log checksum 4B62E5E23565458B098C597F2D255310F3FA3AC853FEAD0411C32230463CC001 ====

REM GENRE Alternative rock
REM DATE 2007
REM DISCID 540A8808
REM COMMENT “ExactAudioCopy v1.0b3”
PERFORMER “Nick Cave & The Bad Seeds”
TITLE “The Abattoir Blues Tour [724596935224]”
FILE “01. O Children.wav” WAVE
TRACK 01 AUDIO
TITLE “O Children”
PERFORMER “Nick Cave & The Bad Seeds”
INDEX 01 00:00:00
FILE “02. Hiding All Away.wav” WAVE
TRACK 02 AUDIO
TITLE “Hiding All Away”
PERFORMER “Nick Cave & The Bad Seeds”
INDEX 01 00:00:00
TRACK 03 AUDIO
TITLE “Breathless”
PERFORMER “Nick Cave & The Bad Seeds”
INDEX 00 06:22:44
FILE “03. Breathless.wav” WAVE
INDEX 01 00:00:00
TRACK 04 AUDIO
TITLE “Get Ready For Love”
PERFORMER “Nick Cave & The Bad Seeds”
INDEX 00 03:36:29
FILE “04. Get Ready For Love.wav” WAVE
INDEX 01 00:00:00
FILE “05. Red Right Hand.wav” WAVE
TRACK 05 AUDIO
TITLE “Red Right Hand”
PERFORMER “Nick Cave & The Bad Seeds”
INDEX 01 00:00:00
FILE “06. The Ship Song.wav” WAVE
TRACK 06 AUDIO
TITLE “The Ship Song”
PERFORMER “Nick Cave & The Bad Seeds”
INDEX 01 00:00:00
TRACK 07 AUDIO
TITLE “The Weeping Song”
PERFORMER “Nick Cave & The Bad Seeds”
INDEX 00 04:09:45
FILE “07. The Weeping Song.wav” WAVE
INDEX 01 00:00:00
FILE “08. Stagger Lee.wav” WAVE
TRACK 08 AUDIO
TITLE “Stagger Lee”
PERFORMER “Nick Cave & The Bad Seeds”
INDEX 01 00:00:00

REM GENRE Alternative rock
REM DATE 2007
REM DISCID 7A0B0709
REM COMMENT “ExactAudioCopy v1.0b3”
PERFORMER “Nick Cave & The Bad Seeds”
TITLE “The Abattoir Blues Tour [724596935224]”
FILE “01. Carry Me.wav” WAVE
TRACK 01 AUDIO
TITLE “Carry Me”
PERFORMER “Nick Cave & The Bad Seeds”
INDEX 01 00:00:00
TRACK 02 AUDIO
TITLE “Let The Bells Ring”
PERFORMER “Nick Cave & The Bad Seeds”
INDEX 00 04:49:26
FILE “02. Let The Bells Ring.wav” WAVE
INDEX 01 00:00:00
TRACK 03 AUDIO
TITLE “Easy Money”
PERFORMER “Nick Cave & The Bad Seeds”
INDEX 00 04:55:02
FILE “03. Easy Money.wav” WAVE
INDEX 01 00:00:00
TRACK 04 AUDIO
TITLE “Supernaturally”
PERFORMER “Nick Cave & The Bad Seeds”
INDEX 00 07:08:64
FILE “04. Supernaturally.wav” WAVE
INDEX 01 00:00:00
TRACK 05 AUDIO
TITLE “Babe, You Turn Me On”
PERFORMER “Nick Cave & The Bad Seeds”
INDEX 00 05:13:19
FILE “05. Babe, You Turn Me On.wav” WAVE
INDEX 01 00:00:00
FILE “06. There She Goes, My Beautiful World.wav” WAVE
TRACK 06 AUDIO
TITLE “There She Goes, My Beautiful World”
PERFORMER “Nick Cave & The Bad Seeds”
INDEX 01 00:00:00
FILE “07. God Is In The House.wav” WAVE
TRACK 07 AUDIO
TITLE “God Is In The House”
PERFORMER “Nick Cave & The Bad Seeds”
INDEX 01 00:00:00
TRACK 08 AUDIO
TITLE “Deanna”
PERFORMER “Nick Cave & The Bad Seeds”
INDEX 00 04:46:04
FILE “08. Deanna.wav” WAVE
INDEX 01 00:00:00
FILE “09. Lay Me Low.wav” WAVE
TRACK 09 AUDIO
TITLE “Lay Me Low”
PERFORMER “Nick Cave & The Bad Seeds”
INDEX 01 00:00:00

Leave a Reply

Your email address will not be published. Required fields are marked *

This site uses Akismet to reduce spam. Learn how your comment data is processed.