Nick Cave & The Bad Seeds – Tender Prey




Artist: Nick Cave & The Bad Seeds
Year: 1996
Genre: Rock
Notes: Discogs
Add. Notes:
Cover incl.: Yes
Encoder: FLAC
Bitrate: ~900 kBit/s (44.1 kHz/16 Bit/s)
Log & Cue incl.: Yes
Size: 388,46 MB
Password: “slam” (without ” “)


All Downloads/Hosters are compatible

Download 1
Turbobit.net
Rapidgator.net
KatFile.com
UsersDrive.com
CloudShare.to
Download 2
Turbobit.net
Rapidgator.net
KatFile.com
UsersDrive.com
CloudShare.to
Download 3
Turbobit.net
Rapidgator.net
KatFile.com
UsersDrive.com
CloudShare.to

Tracklist:

1 - The Mercy Seat - 7:16
2 - Up Jumped The Devil - 5:16
3 - Deanna - 3:45
4 - Watching Alice - 4:01
5 - Mercy - 6:13
6 - City Of Refuge - 4:48
7 - Slowly Goes The Night - 5:24
8 - Sunday's Slave - 3:41
9 - Sugar Sugar Sugar - 5:01
10 - New Morning - 3:46
11 - The Mercy Seat (Video Mix) - 5:07

EAC-Log, CUE-Sheed & NFO:

Click to open spoiler
Exact Audio Copy V1.0 beta 3 from 29. August 2011

EAC extraction logfile from 15. September 2014, 2:47

Nick Cave & The Bad Seeds / Tender Prey [1996, 9 61059-2]

Used drive : ASUS DRW-22B3S Adapter: 3 ID: 1

Read mode : Secure
Utilize accurate stream : Yes
Defeat audio cache : Yes
Make use of C2 pointers : No

Read offset correction : 6
Overread into Lead-In and Lead-Out : No
Fill up missing offset samples with silence : Yes
Delete leading and trailing silent blocks : No
Null samples used in CRC calculations : Yes
Used interface : Native Win32 interface for Win NT & 2000
Gap handling : Appended to previous track

Used output format : User Defined Encoder
Selected bitrate : 768 kBit/s
Quality : High
Add ID3 tag : No
Command line compressor : C:\Program Files\Exact Audio Copy\FLAC\FLAC.EXE
Additional command line options : -V -8 -T “Genre=%genre%” -T “Artist=%artist%” -T “Title=%title%” -T “Album=%albumtitle%” -T “Date=%year%” -T “Tracknumber=%tracknr%” -T “Comment=%comment%” %source%

TOC of the extracted CD

Track | Start | Length | Start sector | End sector
———————————————————
1 | 0:00.32 | 7:17.13 | 32 | 32819
2 | 7:17.45 | 5:16.37 | 32820 | 56556
3 | 12:34.07 | 3:45.35 | 56557 | 73466
4 | 16:19.42 | 4:01.33 | 73467 | 91574
5 | 20:21.00 | 6:23.40 | 91575 | 120339
6 | 26:44.40 | 4:48.07 | 120340 | 141946
7 | 31:32.47 | 5:23.50 | 141947 | 166221
8 | 36:56.22 | 3:40.70 | 166222 | 182791
9 | 40:37.17 | 5:01.33 | 182792 | 205399
10 | 45:38.50 | 3:47.55 | 205400 | 222479
11 | 49:26.30 | 5:04.72 | 222480 | 245351

Track 1

Filename H:\g.y.m\Nick Cave & The Bad Seeds\1988 – Tender Prey [1996, 9 61059-2]\01. The Mercy Seat.wav

Pre-gap length 0:00:02.32

Peak level 70.0 %
Extraction speed 2.0 X
Track quality 100.0 %
Test CRC 3B1CF508
Copy CRC 3B1CF508
Accurately ripped (confidence 2) [716FED0E] (AR v2)
Copy OK

Track 2

Filename H:\g.y.m\Nick Cave & The Bad Seeds\1988 – Tender Prey [1996, 9 61059-2]\02. Up Jumped the Devil.wav

Pre-gap length 0:00:02.33

Peak level 90.7 %
Extraction speed 2.3 X
Track quality 100.0 %
Test CRC F8AAE6C8
Copy CRC F8AAE6C8
Accurately ripped (confidence 2) [509DC04F] (AR v2)
Copy OK

Track 3

Filename H:\g.y.m\Nick Cave & The Bad Seeds\1988 – Tender Prey [1996, 9 61059-2]\03. Deanna.wav

Peak level 57.9 %
Extraction speed 2.4 X
Track quality 100.0 %
Test CRC 6D7B219D
Copy CRC 6D7B219D
Accurately ripped (confidence 2) [AC657D1C] (AR v2)
Copy OK

Track 4

Filename H:\g.y.m\Nick Cave & The Bad Seeds\1988 – Tender Prey [1996, 9 61059-2]\04. Watching Alice.wav

Pre-gap length 0:00:00.37

Peak level 78.8 %
Extraction speed 2.5 X
Track quality 100.0 %
Test CRC 08E2D427
Copy CRC 08E2D427
Accurately ripped (confidence 2) [FC3F7A60] (AR v2)
Copy OK

Track 5

Filename H:\g.y.m\Nick Cave & The Bad Seeds\1988 – Tender Prey [1996, 9 61059-2]\05. Mercy.wav

Pre-gap length 0:00:00.43

Peak level 88.1 %
Extraction speed 2.9 X
Track quality 100.0 %
Test CRC F3C0D574
Copy CRC F3C0D574
Accurately ripped (confidence 2) [81688773] (AR v2)
Copy OK

Track 6

Filename H:\g.y.m\Nick Cave & The Bad Seeds\1988 – Tender Prey [1996, 9 61059-2]\06. City of Refuge.wav

Pre-gap length 0:00:02.50

Peak level 91.1 %
Extraction speed 3.0 X
Track quality 100.0 %
Test CRC 0EF86B7F
Copy CRC 0EF86B7F
Accurately ripped (confidence 2) [F9D561CD] (AR v2)
Copy OK

Track 7

Filename H:\g.y.m\Nick Cave & The Bad Seeds\1988 – Tender Prey [1996, 9 61059-2]\07. Slowly Goes the Night.wav

Pre-gap length 0:00:00.05

Peak level 99.7 %
Extraction speed 2.5 X
Track quality 99.9 %
Test CRC 4FF2988A
Copy CRC 4FF2988A
Accurately ripped (confidence 2) [8A49D88E] (AR v2)
Copy OK

Track 8

Filename H:\g.y.m\Nick Cave & The Bad Seeds\1988 – Tender Prey [1996, 9 61059-2]\08. Sunday’s Slave.wav

Pre-gap length 0:00:00.05

Peak level 89.7 %
Extraction speed 3.2 X
Track quality 100.0 %
Test CRC 4DC65C39
Copy CRC 4DC65C39
Accurately ripped (confidence 2) [931C0C6F] (AR v2)
Copy OK

Track 9

Filename H:\g.y.m\Nick Cave & The Bad Seeds\1988 – Tender Prey [1996, 9 61059-2]\09. Sugar Sugar Sugar.wav

Pre-gap length 0:00:01.27

Peak level 69.2 %
Extraction speed 2.6 X
Track quality 99.9 %
Test CRC 3F9E4692
Copy CRC 3F9E4692
Accurately ripped (confidence 2) [01B294A2] (AR v2)
Copy OK

Track 10

Filename H:\g.y.m\Nick Cave & The Bad Seeds\1988 – Tender Prey [1996, 9 61059-2]\10. New Morning.wav

Pre-gap length 0:00:01.03

Peak level 83.5 %
Extraction speed 2.5 X
Track quality 99.9 %
Test CRC FF6D9CC3
Copy CRC FF6D9CC3
Accurately ripped (confidence 2) [D4EB56EF] (AR v2)
Copy OK

Track 11

Filename H:\g.y.m\Nick Cave & The Bad Seeds\1988 – Tender Prey [1996, 9 61059-2]\11. The Mercy Seat (Video Mix).wav

Pre-gap length 0:00:01.30

Peak level 100.0 %
Extraction speed 3.7 X
Track quality 100.0 %
Test CRC 64264E86
Copy CRC 64264E86
Accurately ripped (confidence 4) [533CE70F] (AR v1)
Copy OK

All tracks accurately ripped

No errors occurred

End of status report

==== Log checksum 678C49238C2E6C7CAF993BACE70368BAB4F31E08F089EF541F9167BE689A7211 ====

REM GENRE “Alternative Rock”
REM DATE 1988
REM DISCID A60CC70B
REM COMMENT “ExactAudioCopy v1.0b3”
PERFORMER “Nick Cave & The Bad Seeds”
TITLE “Tender Prey [1996, 9 61059-2]”
FILE “01. The Mercy Seat.wav” WAVE
TRACK 01 AUDIO
TITLE “The Mercy Seat”
PERFORMER “Nick Cave & The Bad Seeds”
PREGAP 00:00:32
INDEX 01 00:00:00
TRACK 02 AUDIO
TITLE “Up Jumped The Devil”
PERFORMER “Nick Cave & The Bad Seeds”
INDEX 00 07:14:55
FILE “02. Up Jumped the Devil.wav” WAVE
INDEX 01 00:00:00
FILE “03. Deanna.wav” WAVE
TRACK 03 AUDIO
TITLE “Deanna”
PERFORMER “Nick Cave & The Bad Seeds”
INDEX 01 00:00:00
TRACK 04 AUDIO
TITLE “Watching Alice”
PERFORMER “Nick Cave & The Bad Seeds”
INDEX 00 03:44:73
FILE “04. Watching Alice.wav” WAVE
INDEX 01 00:00:00
TRACK 05 AUDIO
TITLE “Mercy”
PERFORMER “Nick Cave & The Bad Seeds”
INDEX 00 04:00:65
FILE “05. Mercy.wav” WAVE
INDEX 01 00:00:00
TRACK 06 AUDIO
TITLE “City of Refuge”
PERFORMER “Nick Cave & The Bad Seeds”
INDEX 00 06:20:65
FILE “06. City Of Refuge.wav” WAVE
INDEX 01 00:00:00
TRACK 07 AUDIO
TITLE “Slowly Goes the Night”
PERFORMER “Nick Cave & The Bad Seeds”
INDEX 00 04:48:02
FILE “07. Slowly Goes The Night.wav” WAVE
INDEX 01 00:00:00
TRACK 08 AUDIO
TITLE “Sunday’s Slave”
PERFORMER “Nick Cave & The Bad Seeds”
INDEX 00 05:23:45
FILE “08. Sunday’s Slave.wav” WAVE
INDEX 01 00:00:00
TRACK 09 AUDIO
TITLE “Sugar Sugar Sugar”
PERFORMER “Nick Cave & The Bad Seeds”
INDEX 00 03:39:43
FILE “09. Sugar Sugar Sugar.wav” WAVE
INDEX 01 00:00:00
TRACK 10 AUDIO
TITLE “New Morning”
PERFORMER “Nick Cave & The Bad Seeds”
INDEX 00 05:00:30
FILE “10. New Morning.wav” WAVE
INDEX 01 00:00:00
TRACK 11 AUDIO
TITLE “The Mercy Seat (Video Mix)”
PERFORMER “Nick Cave & The Bad Seeds”
INDEX 00 03:46:25
FILE “11. The Mercy Seat (Video Mix).wav” WAVE
INDEX 01 00:00:00

Leave a Reply

Your email address will not be published. Required fields are marked *

This site uses Akismet to reduce spam. Learn how your comment data is processed.