Nick Cave & The Bad Seeds – Tender Pre (Japanese Edition)




Artist: Nick Cave & The Bad Seeds
Year: 1988
Genre: Rock
Notes: Discogs
Add. Notes: Japanese Edition
Cover incl.: Yes
Encoder: FLAC
Bitrate: ~800 kBit/s (44.1 kHz/16 Bit/s)
Log & Cue incl.: Yes
Size: 517,57 MB
Password: “slam” (without ” “)


All Downloads/Hosters are compatible

Download 1
Turbobit.net
Rapidgator.net
UploadByte.com
UploadEver.com
JustUpload.io
Download 2
Turbobit.net
Rapidgator.net
UploadByte.com
UploadEver.com
JustUpload.io
Download 3
Turbobit.net
Rapidgator.net
UploadByte.com
UploadEver.com
JustUpload.io

Tracklist:

1 - The Mercy Seat - 7:16
2 - Up Jumped The Devil - 5:16
3 - Deanna - 3:45
4 - Watching Alice - 4:01
5 - Mercy - 6:13
6 - City Of Refuge - 4:48
7 - Slowly Goes The Night - 5:24
8 - Sunday's Slave - 3:41
9 - Sugar Sugar Sugar - 5:01
10 - New Morning - 3:46
11 - The Mercy Seat (Video Mix) - 5:07
12 - And The Ass Saw The Angel - 14:29

EAC-Log, CUE-Sheed & NFO:

Click to open spoiler
Exact Audio Copy V1.1 from 23. June 2015

EAC extraction logfile from 19. December 2015, 1:57

Nick Cave & The Bad Seeds / Tender Prey [29B2-24]

Used drive : ASUS DRW-22B3S Adapter: 1 ID: 0

Read mode : Secure
Utilize accurate stream : Yes
Defeat audio cache : Yes
Make use of C2 pointers : No

Read offset correction : 6
Overread into Lead-In and Lead-Out : No
Fill up missing offset samples with silence : Yes
Delete leading and trailing silent blocks : No
Null samples used in CRC calculations : Yes
Used interface : Native Win32 interface for Win NT & 2000
Gap handling : Appended to previous track

Used output format : User Defined Encoder
Selected bitrate : 768 kBit/s
Quality : High
Add ID3 tag : No
Command line compressor : C:\Program Files\Exact Audio Copy\FLAC\FLAC.EXE
Additional command line options : -V -8 -T “Genre=%genre%” -T “Artist=%artist%” -T “Title=%title%” -T “Album=%albumtitle%” -T “Date=%year%” -T “Tracknumber=%tracknr%” -T “Comment=%comment%” %source%

TOC of the extracted CD

Track | Start | Length | Start sector | End sector
———————————————————
1 | 0:00.00 | 7:17.50 | 0 | 32824
2 | 7:17.50 | 5:16.35 | 32825 | 56559
3 | 12:34.10 | 3:45.25 | 56560 | 73459
4 | 16:19.35 | 4:01.37 | 73460 | 91571
5 | 20:20.72 | 6:22.10 | 91572 | 120231
6 | 26:43.07 | 4:48.08 | 120232 | 141839
7 | 31:31.15 | 5:23.47 | 141840 | 166111
8 | 36:54.62 | 3:40.70 | 166112 | 182681
9 | 40:35.57 | 5:01.30 | 182682 | 205286
10 | 45:37.12 | 3:46.08 | 205287 | 222244
11 | 49:23.20 | 5:08.70 | 222245 | 245414
12 | 54:32.15 | 14:30.07 | 245415 | 310671

Track 1

Filename H:\g.y.m\Nick Cave & The Bad Seeds\1988 – Tender Prey [29B2-24]\01. The Mercy Seat.wav

Pre-gap length 0:00:02.00

Peak level 95.5 %
Extraction speed 6.2 X
Track quality 100.0 %
Test CRC C670FF62
Copy CRC C670FF62
Track not present in AccurateRip database
Copy OK

Track 2

Filename H:\g.y.m\Nick Cave & The Bad Seeds\1988 – Tender Prey [29B2-24]\02. Up Jumped The Devil.wav

Pre-gap length 0:00:01.43

Peak level 96.1 %
Extraction speed 6.9 X
Track quality 100.0 %
Test CRC B8382AB6
Copy CRC B8382AB6
Track not present in AccurateRip database
Copy OK

Track 3

Filename H:\g.y.m\Nick Cave & The Bad Seeds\1988 – Tender Prey [29B2-24]\03. Deanna.wav

Peak level 65.5 %
Extraction speed 7.1 X
Track quality 100.0 %
Test CRC E1059661
Copy CRC E1059661
Track not present in AccurateRip database
Copy OK

Track 4

Filename H:\g.y.m\Nick Cave & The Bad Seeds\1988 – Tender Prey [29B2-24]\04. Watching Alice.wav

Peak level 83.4 %
Extraction speed 7.5 X
Track quality 100.0 %
Test CRC FE522C70
Copy CRC FE522C70
Track not present in AccurateRip database
Copy OK

Track 5

Filename H:\g.y.m\Nick Cave & The Bad Seeds\1988 – Tender Prey [29B2-24]\05. Mercy.wav

Peak level 95.5 %
Extraction speed 7.4 X
Track quality 99.9 %
Test CRC 961BFCD8
Copy CRC 961BFCD8
Track not present in AccurateRip database
Copy OK

Track 6

Filename H:\g.y.m\Nick Cave & The Bad Seeds\1988 – Tender Prey [29B2-24]\06. City Of Refuge.wav

Peak level 100.0 %
Extraction speed 8.7 X
Track quality 100.0 %
Test CRC 079F9523
Copy CRC 079F9523
Track not present in AccurateRip database
Copy OK

Track 7

Filename H:\g.y.m\Nick Cave & The Bad Seeds\1988 – Tender Prey [29B2-24]\07. Slowly Goes The Night.wav

Peak level 100.0 %
Extraction speed 9.3 X
Track quality 100.0 %
Test CRC 072ED712
Copy CRC 072ED712
Track not present in AccurateRip database
Copy OK

Track 8

Filename H:\g.y.m\Nick Cave & The Bad Seeds\1988 – Tender Prey [29B2-24]\08. Sunday’s Slave.wav

Peak level 92.8 %
Extraction speed 9.1 X
Track quality 100.0 %
Test CRC C1350E3B
Copy CRC C1350E3B
Track not present in AccurateRip database
Copy OK

Track 9

Filename H:\g.y.m\Nick Cave & The Bad Seeds\1988 – Tender Prey [29B2-24]\09. Sugar Sugar Sugar.wav

Peak level 73.3 %
Extraction speed 9.8 X
Track quality 100.0 %
Test CRC 44CA3BFA
Copy CRC 44CA3BFA
Track not present in AccurateRip database
Copy OK

Track 10

Filename H:\g.y.m\Nick Cave & The Bad Seeds\1988 – Tender Prey [29B2-24]\10. New Morning.wav

Peak level 92.6 %
Extraction speed 8.1 X
Track quality 99.9 %
Test CRC 732E1B3B
Copy CRC 732E1B3B
Track not present in AccurateRip database
Copy OK

Track 11

Filename H:\g.y.m\Nick Cave & The Bad Seeds\1988 – Tender Prey [29B2-24]\11. The Mercy Seat (Video Mix).wav

Peak level 100.0 %
Extraction speed 10.6 X
Track quality 100.0 %
Test CRC DE9A7814
Copy CRC DE9A7814
Track not present in AccurateRip database
Copy OK

Track 12

Filename H:\g.y.m\Nick Cave & The Bad Seeds\1988 – Tender Prey [29B2-24]\12. And The Ass Saw The Angel.wav

Pre-gap length 0:00:02.08

Peak level 97.7 %
Extraction speed 12.2 X
Track quality 100.0 %
Test CRC 9497D8B9
Copy CRC 9497D8B9
Track not present in AccurateRip database
Copy OK

None of the tracks are present in the AccurateRip database

No errors occurred

End of status report

==== Log checksum 60A9854AEF790C368E138B22A0FD1E37087572A7554175FA505B714D9E3B82E0 ====

REM GENRE “Alternative Rock”
REM DATE 1988
REM DISCID B4102E0C
REM COMMENT “ExactAudioCopy v1.1”
PERFORMER “Nick Cave & The Bad Seeds”
TITLE “Tender Prey [29B2-24]”
FILE “01. The Mercy Seat.wav” WAVE
TRACK 01 AUDIO
TITLE “The Mercy Seat”
PERFORMER “Nick Cave & The Bad Seeds”
INDEX 01 00:00:00
TRACK 02 AUDIO
TITLE “Up Jumped The Devil”
PERFORMER “Nick Cave & The Bad Seeds”
INDEX 00 07:16:07
FILE “02. Up Jumped The Devil.wav” WAVE
INDEX 01 00:00:00
FILE “03. Deanna.wav” WAVE
TRACK 03 AUDIO
TITLE “Deanna”
PERFORMER “Nick Cave & The Bad Seeds”
INDEX 01 00:00:00
FILE “04. Watching Alice.wav” WAVE
TRACK 04 AUDIO
TITLE “Watching Alice”
PERFORMER “Nick Cave & The Bad Seeds”
INDEX 01 00:00:00
FILE “05. Mercy.wav” WAVE
TRACK 05 AUDIO
TITLE “Mercy”
PERFORMER “Nick Cave & The Bad Seeds”
INDEX 01 00:00:00
FILE “06. City Of Refuge.wav” WAVE
TRACK 06 AUDIO
TITLE “City Of Refuge”
PERFORMER “Nick Cave & The Bad Seeds”
INDEX 01 00:00:00
FILE “07. Slowly Goes The Night.wav” WAVE
TRACK 07 AUDIO
TITLE “Slowly Goes The Night”
PERFORMER “Nick Cave & The Bad Seeds”
INDEX 01 00:00:00
FILE “08. Sunday’s Slave.wav” WAVE
TRACK 08 AUDIO
TITLE “Sunday’s Slave”
PERFORMER “Nick Cave & The Bad Seeds”
INDEX 01 00:00:00
FILE “09. Sugar Sugar Sugar.wav” WAVE
TRACK 09 AUDIO
TITLE “Sugar Sugar Sugar”
PERFORMER “Nick Cave & The Bad Seeds”
INDEX 01 00:00:00
FILE “10. New Morning.wav” WAVE
TRACK 10 AUDIO
TITLE “New Morning”
PERFORMER “Nick Cave & The Bad Seeds”
INDEX 01 00:00:00
FILE “11. The Mercy Seat (Video Mix).wav” WAVE
TRACK 11 AUDIO
TITLE “The Mercy Seat (Video Mix)”
PERFORMER “Nick Cave & The Bad Seeds”
INDEX 01 00:00:00
TRACK 12 AUDIO
TITLE “And The Ass Saw The Angel”
PERFORMER “Nick Cave & The Bad Seeds”
INDEX 00 05:06:62
FILE “12. And The Ass Saw The Angel.wav” WAVE
INDEX 01 00:00:00
INDEX 02 03:57:45
INDEX 03 07:41:57
INDEX 04 10:16:42

Leave a Reply

Your email address will not be published. Required fields are marked *

This site uses Akismet to reduce spam. Learn how your comment data is processed.