Nick Cave & The Bad Seeds – Push The Sky Away




Artist: Nick Cave & The Bad Seeds
Year: 2013
Genre: Rock
Notes: Discogs
Add. Notes:
Cover incl.: Yes
Encoder: FLAC
Bitrate: ~700 kBit/s (44.1 kHz/16 Bit/s)
Log & Cue incl.: Yes
Size: 328,54 MB
Password: “slam” (without ” “)


All Downloads/Hosters are compatible

Download 1
Turbobit.net
Rapidgator.net
UploadEver.com
KatFile.com
UsersDrive.com
Download 2
Turbobit.net
Rapidgator.net
UploadEver.com
KatFile.com
UsersDrive.com
Download 3
Turbobit.net
Rapidgator.net
UploadEver.com
KatFile.com
UsersDrive.com

Tracklist:

1 - We No Who U R - 4:04
2 - Wide Lovely Eyes - 3:40
3 - Water's Edge - 3:49
4 - Jubilee Street - 6:36
5 - Mermaids - 3:49
6 - We Real Cool - 4:19
7 - Finishing Jubilee Street - 4:29
8 - Higgs Boson Blues - 7:50
9 - Push The Sky Away - 4:06

EAC-Log, CUE-Sheed & NFO:

Click to open spoiler
Exact Audio Copy V1.0 beta 3 from 29. August 2011

EAC extraction logfile from 6. March 2015, 21:53

Nick Cave & The Bad Seeds / Push The Sky Away [BS001CD]

Used drive : ASUS DRW-22B3S Adapter: 3 ID: 1

Read mode : Secure
Utilize accurate stream : Yes
Defeat audio cache : Yes
Make use of C2 pointers : No

Read offset correction : 6
Overread into Lead-In and Lead-Out : No
Fill up missing offset samples with silence : Yes
Delete leading and trailing silent blocks : No
Null samples used in CRC calculations : Yes
Used interface : Native Win32 interface for Win NT & 2000
Gap handling : Appended to previous track

Used output format : User Defined Encoder
Selected bitrate : 768 kBit/s
Quality : High
Add ID3 tag : No
Command line compressor : C:\Program Files\Exact Audio Copy\FLAC\FLAC.EXE
Additional command line options : -V -8 -T “Genre=%genre%” -T “Artist=%artist%” -T “Title=%title%” -T “Album=%albumtitle%” -T “Date=%year%” -T “Tracknumber=%tracknr%” -T “Comment=%comment%” %source%

TOC of the extracted CD

Track | Start | Length | Start sector | End sector
———————————————————
1 | 0:00.00 | 4:05.45 | 0 | 18419
2 | 4:05.45 | 3:40.11 | 18420 | 34930
3 | 7:45.56 | 3:49.05 | 34931 | 52110
4 | 11:34.61 | 6:35.73 | 52111 | 81808
5 | 18:10.59 | 3:49.01 | 81809 | 98984
6 | 21:59.60 | 4:18.52 | 98985 | 118386
7 | 26:18.37 | 4:28.51 | 118387 | 138537
8 | 30:47.13 | 7:50.49 | 138538 | 173836
9 | 38:37.62 | 4:09.60 | 173837 | 192571

Track 1

Filename H:\g.y.m\Nick Cave & The Bad Seeds\2013 – Push The Sky Away [BS001CD]\01. We No Who U R.wav

Pre-gap length 0:00:02.00

Peak level 97.6 %
Extraction speed 5.2 X
Track quality 100.0 %
Test CRC 7B2719C8
Copy CRC 7B2719C8
Accurately ripped (confidence 5) [F47E75EA] (AR v2)
Copy OK

Track 2

Filename H:\g.y.m\Nick Cave & The Bad Seeds\2013 – Push The Sky Away [BS001CD]\02. Wide Lovely Eyes.wav

Peak level 97.7 %
Extraction speed 5.6 X
Track quality 100.0 %
Test CRC 2FFCEF0D
Copy CRC 2FFCEF0D
Accurately ripped (confidence 5) [D7794884] (AR v2)
Copy OK

Track 3

Filename H:\g.y.m\Nick Cave & The Bad Seeds\2013 – Push The Sky Away [BS001CD]\03. Water’s Edge.wav

Peak level 97.8 %
Extraction speed 5.1 X
Track quality 99.9 %
Test CRC B3B58DE6
Copy CRC B3B58DE6
Accurately ripped (confidence 5) [F3980AB9] (AR v2)
Copy OK

Track 4

Filename H:\g.y.m\Nick Cave & The Bad Seeds\2013 – Push The Sky Away [BS001CD]\04. Jubilee Street.wav

Peak level 100.0 %
Extraction speed 7.1 X
Track quality 100.0 %
Test CRC 4CF89F38
Copy CRC 4CF89F38
Accurately ripped (confidence 5) [97E2B17B] (AR v2)
Copy OK

Track 5

Filename H:\g.y.m\Nick Cave & The Bad Seeds\2013 – Push The Sky Away [BS001CD]\05. Mermaids.wav

Peak level 100.0 %
Extraction speed 7.2 X
Track quality 100.0 %
Test CRC CD2C4392
Copy CRC CD2C4392
Accurately ripped (confidence 5) [354D800B] (AR v2)
Copy OK

Track 6

Filename H:\g.y.m\Nick Cave & The Bad Seeds\2013 – Push The Sky Away [BS001CD]\06. We Real Cool.wav

Peak level 97.6 %
Extraction speed 7.8 X
Track quality 100.0 %
Test CRC C606DE6F
Copy CRC C606DE6F
Accurately ripped (confidence 5) [7AA1E50B] (AR v2)
Copy OK

Track 7

Filename H:\g.y.m\Nick Cave & The Bad Seeds\2013 – Push The Sky Away [BS001CD]\07. Finishing Jubilee Street.wav

Peak level 98.5 %
Extraction speed 8.2 X
Track quality 100.0 %
Test CRC 0F221F54
Copy CRC 0F221F54
Accurately ripped (confidence 5) [4AD877D5] (AR v2)
Copy OK

Track 8

Filename H:\g.y.m\Nick Cave & The Bad Seeds\2013 – Push The Sky Away [BS001CD]\08. Higgs Boson Blues.wav

Peak level 100.0 %
Extraction speed 9.2 X
Track quality 100.0 %
Test CRC E5F65EEA
Copy CRC E5F65EEA
Accurately ripped (confidence 6) [4D2CD410] (AR v2)
Copy OK

Track 9

Filename H:\g.y.m\Nick Cave & The Bad Seeds\2013 – Push The Sky Away [BS001CD]\09. Push The Sky Away.wav

Peak level 96.6 %
Extraction speed 9.1 X
Track quality 100.0 %
Test CRC 5F186210
Copy CRC 5F186210
Accurately ripped (confidence 5) [DBFD500A] (AR v2)
Copy OK

All tracks accurately ripped

No errors occurred

End of status report

==== Log checksum 74A6999F6253678D49BACA8850C97AED854BD974A4764AE41E5DF8CC6AE6C84D ====

REM GENRE “Alternative rock”
REM DATE 2013
REM DISCID 7B0A0709
REM COMMENT “ExactAudioCopy v1.0b3”
PERFORMER “Nick Cave & The Bad Seeds”
TITLE “Push The Sky Away [BS001CD]”
FILE “01. We No Who U R.wav” WAVE
TRACK 01 AUDIO
TITLE “We No Who U R”
PERFORMER “Nick Cave & The Bad Seeds”
INDEX 01 00:00:00
FILE “02. Wide Lovely Eyes.wav” WAVE
TRACK 02 AUDIO
TITLE “Wide Lovely Eyes”
PERFORMER “Nick Cave & The Bad Seeds”
INDEX 01 00:00:00
FILE “03. Water’s Edge.wav” WAVE
TRACK 03 AUDIO
TITLE “Water’s Edge”
PERFORMER “Nick Cave & The Bad Seeds”
INDEX 01 00:00:00
FILE “04. Jubilee Street.wav” WAVE
TRACK 04 AUDIO
TITLE “Jubilee Street”
PERFORMER “Nick Cave & The Bad Seeds”
INDEX 01 00:00:00
FILE “05. Mermaids.wav” WAVE
TRACK 05 AUDIO
TITLE “Mermaids”
PERFORMER “Nick Cave & The Bad Seeds”
INDEX 01 00:00:00
FILE “06. We Real Cool.wav” WAVE
TRACK 06 AUDIO
TITLE “We Real Cool”
PERFORMER “Nick Cave & The Bad Seeds”
INDEX 01 00:00:00
FILE “07. Finishing Jubilee Street.wav” WAVE
TRACK 07 AUDIO
TITLE “Finishing Jubilee Street”
PERFORMER “Nick Cave & The Bad Seeds”
INDEX 01 00:00:00
FILE “08. Higgs Boson Blues.wav” WAVE
TRACK 08 AUDIO
TITLE “Higgs Boson Blues”
PERFORMER “Nick Cave & The Bad Seeds”
INDEX 01 00:00:00
FILE “09. Push The Sky Away.wav” WAVE
TRACK 09 AUDIO
TITLE “Push The Sky Away”
PERFORMER “Nick Cave & The Bad Seeds”
INDEX 01 00:00:00

Leave a Reply

Your email address will not be published. Required fields are marked *

This site uses Akismet to reduce spam. Learn how your comment data is processed.