Nick Cave & The Bad Seeds – Nocturama




Artist: Nick Cave & The Bad Seeds
Year: 2003
Genre: Rock
Notes: Discogs
Add. Notes:
Cover incl.: Yes
Encoder: FLAC
Bitrate: ~1000 kBit/s (44.1 kHz/16 Bit/s)
Log & Cue incl.: Yes
Size: 429,6 MB
Password: “slam” (without ” “)


All Downloads/Hosters are compatible

Download 1
Turbobit.net
Rapidgator.net
UploadEver.com
KatFile.com
UsersDrive.com
Download 2
Turbobit.net
Rapidgator.net
UploadEver.com
KatFile.com
UsersDrive.com
Download 3
Turbobit.net
Rapidgator.net
UploadEver.com
KatFile.com
UsersDrive.com

Tracklist:

1 - Wonderful Life - 6:49
2 - He Wants You - 3:31
3 - Right Out Of Your Hand - 5:15
4 - Bring It On - 5:23
5 - Dead Man In My Bed - 4:41
6 - Still In Love - 4:44
7 - There Is A Town - 4:59
8 - Rock Of Gibraltar - 3:00
9 - She Passed By My Window - 3:20
10 - Babe, I'm On Fire - 14:47

EAC-Log, CUE-Sheed & NFO:

Click to open spoiler
Exact Audio Copy V1.0 beta 3 from 29. August 2011

EAC extraction logfile from 15. September 2014, 1:31

Nick Cave & The Bad Seeds / Nocturama [86668-2]

Used drive : ASUS DRW-22B3S Adapter: 3 ID: 1

Read mode : Secure
Utilize accurate stream : Yes
Defeat audio cache : Yes
Make use of C2 pointers : No

Read offset correction : 6
Overread into Lead-In and Lead-Out : No
Fill up missing offset samples with silence : Yes
Delete leading and trailing silent blocks : No
Null samples used in CRC calculations : Yes
Used interface : Native Win32 interface for Win NT & 2000
Gap handling : Appended to previous track

Used output format : User Defined Encoder
Selected bitrate : 768 kBit/s
Quality : High
Add ID3 tag : No
Command line compressor : C:\Program Files\Exact Audio Copy\FLAC\FLAC.EXE
Additional command line options : -V -8 -T “Genre=%genre%” -T “Artist=%artist%” -T “Title=%title%” -T “Album=%albumtitle%” -T “Date=%year%” -T “Tracknumber=%tracknr%” -T “Comment=%comment%” %source%

TOC of the extracted CD

Track | Start | Length | Start sector | End sector
———————————————————
1 | 0:00.00 | 6:49.40 | 0 | 30714
2 | 6:49.40 | 3:30.61 | 30715 | 46525
3 | 10:20.26 | 5:15.64 | 46526 | 70214
4 | 15:36.15 | 5:22.33 | 70215 | 94397
5 | 20:58.48 | 4:40.41 | 94398 | 115438
6 | 25:39.14 | 4:44.12 | 115439 | 136750
7 | 30:23.26 | 4:58.58 | 136751 | 159158
8 | 35:22.09 | 3:00.20 | 159159 | 172678
9 | 38:22.29 | 3:20.08 | 172679 | 187686
10 | 41:42.37 | 14:45.22 | 187687 | 254083

Track 1

Filename H:\g.y.m\Nick Cave & The Bad Seeds\2003 – Nocturama [86668-2]\01. Wonderful Life.wav

Pre-gap length 0:00:02.00

Peak level 100.0 %
Extraction speed 5.6 X
Track quality 100.0 %
Test CRC 8A4BE03E
Copy CRC 8A4BE03E
Accurately ripped (confidence 30) [0BA82751] (AR v2)
Copy OK

Track 2

Filename H:\g.y.m\Nick Cave & The Bad Seeds\2003 – Nocturama [86668-2]\02. He Wants You.wav

Pre-gap length 0:00:01.04

Peak level 99.3 %
Extraction speed 4.7 X
Track quality 99.9 %
Test CRC 438B7455
Copy CRC 438B7455
Accurately ripped (confidence 31) [0E8F3C32] (AR v2)
Copy OK

Track 3

Filename H:\g.y.m\Nick Cave & The Bad Seeds\2003 – Nocturama [86668-2]\03. Right Out Of Your Hand.wav

Peak level 99.3 %
Extraction speed 6.7 X
Track quality 100.0 %
Test CRC 09ADAC89
Copy CRC 09ADAC89
Accurately ripped (confidence 32) [2C5DF16C] (AR v2)
Copy OK

Track 4

Filename H:\g.y.m\Nick Cave & The Bad Seeds\2003 – Nocturama [86668-2]\04. Bring It On.wav

Pre-gap length 0:00:02.18

Peak level 99.3 %
Extraction speed 7.3 X
Track quality 100.0 %
Test CRC F8F145F9
Copy CRC F8F145F9
Accurately ripped (confidence 32) [0600D730] (AR v2)
Copy OK

Track 5

Filename H:\g.y.m\Nick Cave & The Bad Seeds\2003 – Nocturama [86668-2]\05. Dead Man In My Bed.wav

Pre-gap length 0:00:00.28

Peak level 99.9 %
Extraction speed 6.5 X
Track quality 99.9 %
Test CRC 26693DF8
Copy CRC 26693DF8
Accurately ripped (confidence 32) [9E609D49] (AR v2)
Copy OK

Track 6

Filename H:\g.y.m\Nick Cave & The Bad Seeds\2003 – Nocturama [86668-2]\06. Still In Love.wav

Pre-gap length 0:00:02.37

Peak level 99.3 %
Extraction speed 6.8 X
Track quality 99.9 %
Test CRC 8F793EAD
Copy CRC 8F793EAD
Accurately ripped (confidence 32) [A8C86334] (AR v2)
Copy OK

Track 7

Filename H:\g.y.m\Nick Cave & The Bad Seeds\2003 – Nocturama [86668-2]\07. There Is A Town.wav

Pre-gap length 0:00:00.33

Peak level 99.3 %
Extraction speed 7.3 X
Track quality 99.9 %
Test CRC 5B9C2F1F
Copy CRC 5B9C2F1F
Accurately ripped (confidence 32) [383E6855] (AR v2)
Copy OK

Track 8

Filename H:\g.y.m\Nick Cave & The Bad Seeds\2003 – Nocturama [86668-2]\08. Rock Of Gibraltar.wav

Pre-gap length 0:00:01.48

Peak level 99.4 %
Extraction speed 6.5 X
Track quality 99.9 %
Test CRC 70B724BA
Copy CRC 70B724BA
Accurately ripped (confidence 32) [E468F211] (AR v2)
Copy OK

Track 9

Filename H:\g.y.m\Nick Cave & The Bad Seeds\2003 – Nocturama [86668-2]\09. She Passed By My Window.wav

Pre-gap length 0:00:02.43

Peak level 99.4 %
Extraction speed 8.5 X
Track quality 100.0 %
Test CRC 5B7CE93E
Copy CRC 5B7CE93E
Accurately ripped (confidence 32) [3CA1C405] (AR v2)
Copy OK

Track 10

Filename H:\g.y.m\Nick Cave & The Bad Seeds\2003 – Nocturama [86668-2]\10. Babe, I’m On Fire.wav

Pre-gap length 0:00:03.23

Peak level 99.3 %
Extraction speed 10.6 X
Track quality 100.0 %
Test CRC 4C9A95A8
Copy CRC 4C9A95A8
Accurately ripped (confidence 29) [D162A574] (AR v2)
Copy OK

All tracks accurately ripped

No errors occurred

End of status report

==== Log checksum 1363177B078AB26165163202ADF5E93345245802545F809542E9F7FBB27C940F ====

REM GENRE “Alternative Rock”
REM DATE 2003
REM DISCID 670D3B0A
REM COMMENT “ExactAudioCopy v1.0b3”
PERFORMER “Nick Cave & The Bad Seeds”
TITLE “Nocturama [86668-2]”
FILE “01. Wonderful Life.wav” WAVE
TRACK 01 AUDIO
TITLE “Wonderful Life”
PERFORMER “Nick Cave & The Bad Seeds”
INDEX 01 00:00:00
TRACK 02 AUDIO
TITLE “He Wants You”
PERFORMER “Nick Cave & The Bad Seeds”
INDEX 00 06:48:36
FILE “02. He Wants You.wav” WAVE
INDEX 01 00:00:00
FILE “03. Right Out Of Your Hand.wav” WAVE
TRACK 03 AUDIO
TITLE “Right Out Of Your Hand”
PERFORMER “Nick Cave & The Bad Seeds”
INDEX 01 00:00:00
TRACK 04 AUDIO
TITLE “Bring It On”
PERFORMER “Nick Cave & The Bad Seeds”
INDEX 00 05:13:46
FILE “04. Bring It On.wav” WAVE
INDEX 01 00:00:00
TRACK 05 AUDIO
TITLE “Dead Man In My Bed”
PERFORMER “Nick Cave & The Bad Seeds”
INDEX 00 05:22:05
FILE “05. Dead Man In My Bed.wav” WAVE
INDEX 01 00:00:00
TRACK 06 AUDIO
TITLE “Still In Love”
PERFORMER “Nick Cave & The Bad Seeds”
INDEX 00 04:38:04
FILE “06. Still In Love.wav” WAVE
INDEX 01 00:00:00
TRACK 07 AUDIO
TITLE “There Is A Town”
PERFORMER “Nick Cave & The Bad Seeds”
INDEX 00 04:43:54
FILE “07. There Is A Town.wav” WAVE
INDEX 01 00:00:00
TRACK 08 AUDIO
TITLE “Rock Of Gibraltar”
PERFORMER “Nick Cave & The Bad Seeds”
INDEX 00 04:57:10
FILE “08. Rock Of Gibraltar.wav” WAVE
INDEX 01 00:00:00
TRACK 09 AUDIO
TITLE “She Passed By My Window”
PERFORMER “Nick Cave & The Bad Seeds”
INDEX 00 02:57:52
FILE “09. She Passed By My Window.wav” WAVE
INDEX 01 00:00:00
TRACK 10 AUDIO
TITLE “Babe, I’m On Fire”
PERFORMER “Nick Cave & The Bad Seeds”
INDEX 00 03:16:60
FILE “10. Babe, I’m On Fire.wav” WAVE
INDEX 01 00:00:00

Leave a Reply

Your email address will not be published. Required fields are marked *

This site uses Akismet to reduce spam. Learn how your comment data is processed.