Nick Cave & The Bad Seeds – No More Shall We Part (Limited Edition)




Artist: Nick Cave & The Bad Seeds
Year: 2001
Genre: Rock
Notes: Discogs
Add. Notes: Limited Edition
Encoder: FLAC
Bitrate: ~800 kBit/s (44.1 kHz/16 Bit/s)
Bin/Cue incl.: Yes
Size: 747,5 MB
Password: “slam” (without ” “)


http://www.share-online.biz/dl/P969LTRPJW
http://www.share-online.biz/dl/LD89LTRPILZE
https://rapidgator.net/file/88b60d2781d6d33e5dbc75bef054d699
https://rapidgator.net/file/d15ce5237d2a4c2a1d548593d7333441
https://uploadbyte.com/f3fq0ykeqyew
https://uploadbyte.com/zbsz7eafw82b
https://justupload.io/kgcz6hxd548l
https://justupload.io/yoc8k93t9dg4
https://uploadever.com/aptdyt94i4si
https://uploadever.com/v4p02teeznpe

Tracklist:

1-1 - As I Sat Sadly By Her Side - 6:15
1-2 - And No More Shall We Part - 4:00
1-3 - Hallelujah - 7:48
1-4 - Love Letter - 4:08
1-5 - Fifteen Feet Of Pure White Snow - 5:36
1-6 - God Is In The House - 5:44
1-7 - Oh My Lord - 7:30
1-8 - Sweetheart Come - 4:58
1-9 - The Sorrowful Wife - 5:18
1-10 - We Came Along This Road - 6:08
1-11 - Gates To The Garden - 4:09
1-12 - Darker With The Day - 6:07
2-1 - Grief Came Riding - 5:08
2-2 - Bless His Ever Loving Heart - 4:00

EAC-Log, CUE-Sheed & NFO:

Click to open spoiler
Exact Audio Copy V1.0 beta 3 from 29. August 2011

EAC extraction logfile from 24. September 2014, 4:49

Nick Cave & The Bad Seeds / No More Shall We Part [lcdstumm164]

Used drive : ASUS DRW-22B3S Adapter: 3 ID: 1

Read mode : Secure
Utilize accurate stream : Yes
Defeat audio cache : Yes
Make use of C2 pointers : No

Read offset correction : 6
Overread into Lead-In and Lead-Out : No
Fill up missing offset samples with silence : Yes
Delete leading and trailing silent blocks : No
Null samples used in CRC calculations : Yes
Used interface : Native Win32 interface for Win NT & 2000
Gap handling : Appended to previous track

Used output format : User Defined Encoder
Selected bitrate : 768 kBit/s
Quality : High
Add ID3 tag : No
Command line compressor : C:\Program Files\Exact Audio Copy\FLAC\FLAC.EXE
Additional command line options : -V -8 -T “Genre=%genre%” -T “Artist=%artist%” -T “Title=%title%” -T “Album=%albumtitle%” -T “Date=%year%” -T “Tracknumber=%tracknr%” -T “Comment=%comment%” %source%

TOC of the extracted CD

Track | Start | Length | Start sector | End sector
———————————————————
1 | 0:00.00 | 6:15.19 | 0 | 28143
2 | 6:15.19 | 4:00.39 | 28144 | 46182
3 | 10:15.58 | 7:48.04 | 46183 | 81286
4 | 18:03.62 | 4:08.37 | 81287 | 99923
5 | 22:12.24 | 5:36.58 | 99924 | 125181
6 | 27:49.07 | 5:44.24 | 125182 | 151005
7 | 33:33.31 | 7:30.24 | 151006 | 184779
8 | 41:03.55 | 4:58.24 | 184780 | 207153
9 | 46:02.04 | 5:18.31 | 207154 | 231034
10 | 51:20.35 | 6:08.22 | 231035 | 258656
11 | 57:28.57 | 4:09.15 | 258657 | 277346
12 | 61:37.72 | 6:07.57 | 277347 | 304928

Track 1

Filename H:\g.y.m\Nick Cave & The Bad Seeds\2001 – No More Shall We Part [lcdstumm164]\CD 1\01. As I Sat Sadly By Her Side.wav

Pre-gap length 0:00:02.00

Peak level 99.8 %
Extraction speed 2.2 X
Track quality 100.0 %
Test CRC C8723C4B
Copy CRC C8723C4B
Accurately ripped (confidence 50) [206CCDC5] (AR v2)
Copy OK

Track 2

Filename H:\g.y.m\Nick Cave & The Bad Seeds\2001 – No More Shall We Part [lcdstumm164]\CD 1\02. And No More Shall We Part.wav

Pre-gap length 0:00:03.51

Peak level 90.6 %
Extraction speed 2.3 X
Track quality 100.0 %
Test CRC EBF4C8AF
Copy CRC EBF4C8AF
Accurately ripped (confidence 50) [F305F24F] (AR v2)
Copy OK

Track 3

Filename H:\g.y.m\Nick Cave & The Bad Seeds\2001 – No More Shall We Part [lcdstumm164]\CD 1\03. Hallelujah.wav

Pre-gap length 0:00:01.57

Peak level 99.8 %
Extraction speed 2.8 X
Track quality 100.0 %
Test CRC 01E98005
Copy CRC 01E98005
Accurately ripped (confidence 49) [E90F416C] (AR v2)
Copy OK

Track 4

Filename H:\g.y.m\Nick Cave & The Bad Seeds\2001 – No More Shall We Part [lcdstumm164]\CD 1\04. Love Letter.wav

Pre-gap length 0:00:01.57

Peak level 96.1 %
Extraction speed 2.8 X
Track quality 100.0 %
Test CRC A09C84F9
Copy CRC A09C84F9
Accurately ripped (confidence 50) [53292A49] (AR v2)
Copy OK

Track 5

Filename H:\g.y.m\Nick Cave & The Bad Seeds\2001 – No More Shall We Part [lcdstumm164]\CD 1\05. Fifteen Feet Of Pure White Snow.wav

Pre-gap length 0:00:04.15

Peak level 99.8 %
Extraction speed 3.1 X
Track quality 100.0 %
Test CRC ADCB199A
Copy CRC ADCB199A
Accurately ripped (confidence 51) [981A63F0] (AR v2)
Copy OK

Track 6

Filename H:\g.y.m\Nick Cave & The Bad Seeds\2001 – No More Shall We Part [lcdstumm164]\CD 1\06. God Is In The House.wav

Pre-gap length 0:00:04.28

Peak level 99.8 %
Extraction speed 3.3 X
Track quality 100.0 %
Test CRC 7F4512E2
Copy CRC 7F4512E2
Accurately ripped (confidence 50) [573FE193] (AR v2)
Copy OK

Track 7

Filename H:\g.y.m\Nick Cave & The Bad Seeds\2001 – No More Shall We Part [lcdstumm164]\CD 1\07. Oh My Lord.wav

Pre-gap length 0:00:01.57

Peak level 99.8 %
Extraction speed 3.6 X
Track quality 100.0 %
Test CRC 371C9FEC
Copy CRC 371C9FEC
Accurately ripped (confidence 50) [E5859308] (AR v2)
Copy OK

Track 8

Filename H:\g.y.m\Nick Cave & The Bad Seeds\2001 – No More Shall We Part [lcdstumm164]\CD 1\08. Sweetheart Come.wav

Pre-gap length 0:00:01.57

Peak level 99.8 %
Extraction speed 3.7 X
Track quality 100.0 %
Test CRC 18CA1958
Copy CRC 18CA1958
Accurately ripped (confidence 50) [A29DA928] (AR v2)
Copy OK

Track 9

Filename H:\g.y.m\Nick Cave & The Bad Seeds\2001 – No More Shall We Part [lcdstumm164]\CD 1\09. The Sorrowful Wife.wav

Pre-gap length 0:00:00.48

Peak level 99.8 %
Extraction speed 3.0 X
Track quality 99.9 %
Test CRC A6427683
Copy CRC A6427683
Accurately ripped (confidence 50) [B0DBB78E] (AR v2)
Copy OK

Track 10

Filename H:\g.y.m\Nick Cave & The Bad Seeds\2001 – No More Shall We Part [lcdstumm164]\CD 1\10. We Came Along This Road.wav

Pre-gap length 0:00:01.57

Peak level 99.8 %
Extraction speed 0.5 X
Track quality 100.0 %
Test CRC 561BA39B
Copy CRC 561BA39B
Accurately ripped (confidence 50) [A1648604] (AR v2)
Copy OK

Track 11

Filename H:\g.y.m\Nick Cave & The Bad Seeds\2001 – No More Shall We Part [lcdstumm164]\CD 1\11. Gates To The Garden.wav

Pre-gap length 0:00:03.03

Peak level 99.8 %
Extraction speed 4.0 X
Track quality 100.0 %
Test CRC 62F6A68D
Copy CRC 62F6A68D
Accurately ripped (confidence 50) [33DA91C2] (AR v2)
Copy OK

Track 12

Filename H:\g.y.m\Nick Cave & The Bad Seeds\2001 – No More Shall We Part [lcdstumm164]\CD 1\12. Darker With The Day.wav

Pre-gap length 0:00:01.57

Peak level 99.8 %
Extraction speed 1.2 X
Track quality 99.5 %
Test CRC 549F2171
Copy CRC 549F2171
Accurately ripped (confidence 50) [61CB50AE] (AR v2)
Copy OK

All tracks accurately ripped

No errors occurred

End of status report

==== Log checksum 9015954BEF010CF637D8EDEF02473865AAD1C91148F8853FAAEEB38E92084121 ====

Exact Audio Copy V1.0 beta 3 from 29. August 2011

EAC extraction logfile from 24. September 2014, 5:04

Nick Cave & The Bad Seeds / No More Shall We Part [lcdstumm164]

Used drive : ASUS DRW-22B3S Adapter: 3 ID: 1

Read mode : Secure
Utilize accurate stream : Yes
Defeat audio cache : Yes
Make use of C2 pointers : No

Read offset correction : 6
Overread into Lead-In and Lead-Out : No
Fill up missing offset samples with silence : Yes
Delete leading and trailing silent blocks : No
Null samples used in CRC calculations : Yes
Used interface : Native Win32 interface for Win NT & 2000
Gap handling : Appended to previous track

Used output format : User Defined Encoder
Selected bitrate : 768 kBit/s
Quality : High
Add ID3 tag : No
Command line compressor : C:\Program Files\Exact Audio Copy\FLAC\FLAC.EXE
Additional command line options : -V -8 -T “Genre=%genre%” -T “Artist=%artist%” -T “Title=%title%” -T “Album=%albumtitle%” -T “Date=%year%” -T “Tracknumber=%tracknr%” -T “Comment=%comment%” %source%

TOC of the extracted CD

Track | Start | Length | Start sector | End sector
———————————————————
1 | 0:00.00 | 5:08.12 | 0 | 23111
2 | 5:08.12 | 4:00.67 | 23112 | 41178
3 | 11:41.04 | 26:13.14 | 52579 | 170567

Track 1

Filename H:\g.y.m\Nick Cave & The Bad Seeds\2001 – No More Shall We Part [lcdstumm164]\CD 2\01. Grief Came Riding.wav

Pre-gap length 0:00:02.00

Peak level 99.8 %
Extraction speed 1.9 X
Track quality 100.0 %
Test CRC 72F975B8
Copy CRC 72F975B8
Accurately ripped (confidence 12) [12C32854] (AR v2)
Copy OK

Track 2

Filename H:\g.y.m\Nick Cave & The Bad Seeds\2001 – No More Shall We Part [lcdstumm164]\CD 2\02. Bless His Ever Loving Heart.wav

Pre-gap length 0:00:01.74

Peak level 99.8 %
Extraction speed 2.1 X
Track quality 100.0 %
Test CRC BB7D4D22
Copy CRC BB7D4D22
Accurately ripped (confidence 12) [421A66C7] (AR v2)
Copy OK

All tracks accurately ripped

No errors occurred

End of status report

==== Log checksum DAB81C35F89A2DCD590CFD87A550423A0D3598FC7EE2CFDB266CA42266FF02AC ====

REM GENRE “Alternative Rock”
REM DATE 2001
REM DISCID A90FE10C
REM COMMENT “ExactAudioCopy v1.0b3”
PERFORMER “Nick Cave & The Bad Seeds”
TITLE “No More Shall We Part [lcdstumm164]”
FILE “01. As I Sat Sadly By Her Side.wav” WAVE
TRACK 01 AUDIO
TITLE “As I Sat Sadly By Her Side”
PERFORMER “Nick Cave & The Bad Seeds”
INDEX 01 00:00:00
TRACK 02 AUDIO
TITLE “And No More Shall We Part”
PERFORMER “Nick Cave & The Bad Seeds”
INDEX 00 06:11:43
FILE “02. And No More Shall We Part.wav” WAVE
INDEX 01 00:00:00
TRACK 03 AUDIO
TITLE “Hallelujah”
PERFORMER “Nick Cave & The Bad Seeds”
INDEX 00 03:58:57
FILE “03. Hallelujah.wav” WAVE
INDEX 01 00:00:00
TRACK 04 AUDIO
TITLE “Love Letter”
PERFORMER “Nick Cave & The Bad Seeds”
INDEX 00 07:46:22
FILE “04. Love Letter.wav” WAVE
INDEX 01 00:00:00
TRACK 05 AUDIO
TITLE “Fifteen Feet Of Pure White Snow”
PERFORMER “Nick Cave & The Bad Seeds”
INDEX 00 04:04:22
FILE “05. Fifteen Feet Of Pure White Snow.wav” WAVE
INDEX 01 00:00:00
TRACK 06 AUDIO
TITLE “God Is In The House”
PERFORMER “Nick Cave & The Bad Seeds”
INDEX 00 05:32:30
FILE “06. God Is In The House.wav” WAVE
INDEX 01 00:00:00
TRACK 07 AUDIO
TITLE “Oh My Lord”
PERFORMER “Nick Cave & The Bad Seeds”
INDEX 00 05:42:42
FILE “07. Oh My Lord.wav” WAVE
INDEX 01 00:00:00
TRACK 08 AUDIO
TITLE “Sweetheart Come”
PERFORMER “Nick Cave & The Bad Seeds”
INDEX 00 07:28:42
FILE “08. Sweetheart Come.wav” WAVE
INDEX 01 00:00:00
TRACK 09 AUDIO
TITLE “The Sorrowful Wife”
PERFORMER “Nick Cave & The Bad Seeds”
INDEX 00 04:57:51
FILE “09. The Sorrowful Wife.wav” WAVE
INDEX 01 00:00:00
TRACK 10 AUDIO
TITLE “We Came Along This Road”
PERFORMER “Nick Cave & The Bad Seeds”
INDEX 00 05:16:49
FILE “10. We Came Along This Road.wav” WAVE
INDEX 01 00:00:00
TRACK 11 AUDIO
TITLE “Gates To The Garden”
PERFORMER “Nick Cave & The Bad Seeds”
INDEX 00 06:05:19
FILE “11. Gates To The Garden.wav” WAVE
INDEX 01 00:00:00
TRACK 12 AUDIO
TITLE “Darker With The Day”
PERFORMER “Nick Cave & The Bad Seeds”
INDEX 00 04:07:33
FILE “12. Darker With The Day.wav” WAVE
INDEX 01 00:00:00

REM GENRE “Alternative Rock”
REM DATE 2001
REM DISCID 1008E203
REM COMMENT “ExactAudioCopy v1.0b3”
PERFORMER “Nick Cave & The Bad Seeds”
TITLE “No More Shall We Part [lcdstumm164]”
FILE “01. Grief Came Riding.wav” WAVE
TRACK 01 AUDIO
TITLE “Grief Came Riding”
PERFORMER “Nick Cave & The Bad Seeds”
INDEX 01 00:00:00
TRACK 02 AUDIO
TITLE “Bless His Ever Loving Heart”
PERFORMER “Nick Cave & The Bad Seeds”
INDEX 00 05:06:13
FILE “02. Bless His Ever Loving Heart.wav” WAVE
INDEX 01 00:00:00
TRACK 03 MODEx/2xxx
TITLE “DATA”
PERFORMER “Nick Cave & The Bad Seeds”
INDEX 00 04:00:67

Leave a Reply

Your email address will not be published. Required fields are marked *

This site uses Akismet to reduce spam. Learn how your comment data is processed.