Nick Cave & The Bad Seeds – Murder Ballads




Artist: Nick Cave & The Bad Seeds
Year: 1996
Genre: Rock
Notes: Discogs
Add. Notes:
Cover incl.: Yes
Encoder: FLAC
Bitrate: ~900 kBit/s (44.1 kHz/16 Bit/s)
Log & Cue incl.: Yes
Size: 494,97 MB
Password: “slam” (without ” “)


All Downloads/Hosters are compatible

Download 1
Turbobit.net
Rapidgator.net
UploadByte.com
UploadEver.com
JustUpload.io
Download 2
Turbobit.net
Rapidgator.net
UploadByte.com
UploadEver.com
JustUpload.io
Download 3
Turbobit.net
Rapidgator.net
UploadByte.com
UploadEver.com
JustUpload.io

Tracklist:

1 - Song Of Joy - 6:47
2 - Stagger Lee - 5:15
3 - Henry Lee - 3:58
4 - Lovely Creature - 4:13
5 - Where The Wild Roses Grow - 3:57
6 - The Curse Of Millhaven - 6:55
7 - The Kindness Of Strangers - 4:39
8 - Crow Jane - 4:14
9 - O'Malley's Bar - 14:28
10 - Death Is Not The End - 4:27

EAC-Log, CUE-Sheed & NFO:

Click to open spoiler
Exact Audio Copy V1.1 from 23. June 2015

EAC extraction logfile from 10. December 2015, 13:01

Nick Cave & The Bad Seeds / Murder Ballads [9 46195-2]

Used drive : ASUS DRW-22B3S Adapter: 1 ID: 0

Read mode : Secure
Utilize accurate stream : Yes
Defeat audio cache : Yes
Make use of C2 pointers : No

Read offset correction : 6
Overread into Lead-In and Lead-Out : No
Fill up missing offset samples with silence : Yes
Delete leading and trailing silent blocks : No
Null samples used in CRC calculations : Yes
Used interface : Native Win32 interface for Win NT & 2000
Gap handling : Appended to previous track

Used output format : User Defined Encoder
Selected bitrate : 768 kBit/s
Quality : High
Add ID3 tag : No
Command line compressor : C:\Program Files\Exact Audio Copy\FLAC\FLAC.EXE
Additional command line options : -V -8 -T “Genre=%genre%” -T “Artist=%artist%” -T “Title=%title%” -T “Album=%albumtitle%” -T “Date=%year%” -T “Tracknumber=%tracknr%” -T “Comment=%comment%” %source%

TOC of the extracted CD

Track | Start | Length | Start sector | End sector
———————————————————
1 | 0:00.00 | 6:47.22 | 0 | 30546
2 | 6:47.22 | 5:15.13 | 30547 | 54184
3 | 12:02.35 | 3:58.12 | 54185 | 72046
4 | 16:00.47 | 4:13.55 | 72047 | 91076
5 | 20:14.27 | 3:57.08 | 91077 | 108859
6 | 24:11.35 | 6:55.65 | 108860 | 140049
7 | 31:07.25 | 4:39.20 | 140050 | 160994
8 | 35:46.45 | 4:14.40 | 160995 | 180084
9 | 40:01.10 | 14:28.15 | 180085 | 245199
10 | 54:29.25 | 4:27.32 | 245200 | 265256

Track 1

Filename H:\g.y.m\Nick Cave & The Bad Seeds\1996 – Murder Ballads [9 46195-2]\01. Song Of Joy.wav

Pre-gap length 0:00:02.00

Peak level 95.4 %
Extraction speed 5.7 X
Track quality 100.0 %
Test CRC 56F05AA9
Copy CRC 56F05AA9
Accurately ripped (confidence 12) [152D0875] (AR v2)
Copy OK

Track 2

Filename H:\g.y.m\Nick Cave & The Bad Seeds\1996 – Murder Ballads [9 46195-2]\02. Stagger Lee.wav

Pre-gap length 0:00:01.07

Peak level 99.9 %
Extraction speed 6.4 X
Track quality 100.0 %
Test CRC DC3B59CC
Copy CRC DC3B59CC
Accurately ripped (confidence 12) [1C165345] (AR v2)
Copy OK

Track 3

Filename H:\g.y.m\Nick Cave & The Bad Seeds\1996 – Murder Ballads [9 46195-2]\03. Henry Lee (Feat. PJ Harvey).wav

Pre-gap length 0:00:01.38

Peak level 95.4 %
Extraction speed 6.7 X
Track quality 100.0 %
Test CRC 5490076F
Copy CRC 5490076F
Accurately ripped (confidence 12) [61FDE0C4] (AR v2)
Copy OK

Track 4

Filename H:\g.y.m\Nick Cave & The Bad Seeds\1996 – Murder Ballads [9 46195-2]\04. Lovely Creature.wav

Pre-gap length 0:00:02.45

Peak level 99.9 %
Extraction speed 7.2 X
Track quality 100.0 %
Test CRC EC006394
Copy CRC EC006394
Accurately ripped (confidence 12) [B8DAF88F] (AR v2)
Copy OK

Track 5

Filename H:\g.y.m\Nick Cave & The Bad Seeds\1996 – Murder Ballads [9 46195-2]\05. Where The Wild Roses Grow (Feat. Kylie Minogue).wav

Pre-gap length 0:00:01.35

Peak level 99.9 %
Extraction speed 7.6 X
Track quality 100.0 %
Test CRC F3A0CDD5
Copy CRC F3A0CDD5
Accurately ripped (confidence 12) [9F02F9A8] (AR v2)
Copy OK

Track 6

Filename H:\g.y.m\Nick Cave & The Bad Seeds\1996 – Murder Ballads [9 46195-2]\06. The Curse Of Millhaven.wav

Pre-gap length 0:00:01.28

Peak level 99.9 %
Extraction speed 8.5 X
Track quality 100.0 %
Test CRC 47F96FD8
Copy CRC 47F96FD8
Accurately ripped (confidence 12) [009500D6] (AR v2)
Copy OK

Track 7

Filename H:\g.y.m\Nick Cave & The Bad Seeds\1996 – Murder Ballads [9 46195-2]\07. The Kindness Of Strangers.wav

Pre-gap length 0:00:01.45

Peak level 99.9 %
Extraction speed 8.7 X
Track quality 100.0 %
Test CRC 6519D386
Copy CRC 6519D386
Accurately ripped (confidence 12) [C15FFEB5] (AR v2)
Copy OK

Track 8

Filename H:\g.y.m\Nick Cave & The Bad Seeds\1996 – Murder Ballads [9 46195-2]\08. Crow Jane.wav

Pre-gap length 0:00:01.60

Peak level 99.9 %
Extraction speed 8.4 X
Track quality 100.0 %
Test CRC 7172B03A
Copy CRC 7172B03A
Accurately ripped (confidence 12) [AA447A58] (AR v2)
Copy OK

Track 9

Filename H:\g.y.m\Nick Cave & The Bad Seeds\1996 – Murder Ballads [9 46195-2]\09. O’Malley’s Bar.wav

Pre-gap length 0:00:01.05

Peak level 99.9 %
Extraction speed 10.0 X
Track quality 99.9 %
Test CRC 09288F5B
Copy CRC 09288F5B
Accurately ripped (confidence 11) [68E5EA67] (AR v2)
Copy OK

Track 10

Filename H:\g.y.m\Nick Cave & The Bad Seeds\1996 – Murder Ballads [9 46195-2]\10. Death Is Not The End (Feat. PJ Harvey, Shane MacGowan etc.).wav

Peak level 99.9 %
Extraction speed 10.3 X
Track quality 100.0 %
Test CRC EA2ECC03
Copy CRC EA2ECC03
Accurately ripped (confidence 11) [C7B7F1E0] (AR v2)
Copy OK

All tracks accurately ripped

No errors occurred

End of status report

==== Log checksum 175E02F9339A4F63B7625ED7DED573A37FF43117FFC7CC31F1E2A89017FB6B6C ====

REM GENRE “Alternative rock”
REM DATE 1996
REM DISCID 810DD00A
REM COMMENT “ExactAudioCopy v1.1”
PERFORMER “Nick Cave & The Bad Seeds”
TITLE “Murder Ballads [9 46195-2]”
FILE “01. Song Of Joy.wav” WAVE
TRACK 01 AUDIO
TITLE “Song Of Joy”
PERFORMER “Nick Cave & The Bad Seeds”
INDEX 01 00:00:00
TRACK 02 AUDIO
TITLE “Stagger Lee”
PERFORMER “Nick Cave & The Bad Seeds”
INDEX 00 06:46:15
FILE “02. Stagger Lee.wav” WAVE
INDEX 01 00:00:00
TRACK 03 AUDIO
TITLE “Henry Lee (Feat. PJ Harvey)”
PERFORMER “Nick Cave & The Bad Seeds”
INDEX 00 05:13:50
FILE “03. Henry Lee (Feat. PJ Harvey).wav” WAVE
INDEX 01 00:00:00
TRACK 04 AUDIO
TITLE “Lovely Creature”
PERFORMER “Nick Cave & The Bad Seeds”
INDEX 00 03:55:42
FILE “04. Lovely Creature.wav” WAVE
INDEX 01 00:00:00
TRACK 05 AUDIO
TITLE “Where The Wild Roses Grow (Feat. Kylie Minogue)”
PERFORMER “Nick Cave & The Bad Seeds”
INDEX 00 04:12:20
FILE “05. Where The Wild Roses Grow (Feat. Kylie Minogue).wav” WAVE
INDEX 01 00:00:00
TRACK 06 AUDIO
TITLE “The Curse Of Millhaven”
PERFORMER “Nick Cave & The Bad Seeds”
INDEX 00 03:55:55
FILE “06. The Curse Of Millhaven.wav” WAVE
INDEX 01 00:00:00
TRACK 07 AUDIO
TITLE “The Kindness Of Strangers”
PERFORMER “Nick Cave & The Bad Seeds”
INDEX 00 06:54:20
FILE “07. The Kindness Of Strangers.wav” WAVE
INDEX 01 00:00:00
TRACK 08 AUDIO
TITLE “Crow Jane”
PERFORMER “Nick Cave & The Bad Seeds”
INDEX 00 04:37:35
FILE “08. Crow Jane.wav” WAVE
INDEX 01 00:00:00
TRACK 09 AUDIO
TITLE “O’Malley’s Bar”
PERFORMER “Nick Cave & The Bad Seeds”
INDEX 00 04:13:35
FILE “09. O’Malley’s Bar.wav” WAVE
INDEX 01 00:00:00
FILE “10. Death Is Not The End (Feat. PJ Harvey, Shane MacGowan etc.).wav” WAVE
TRACK 10 AUDIO
TITLE “Death Is Not The End (Feat. PJ Harvey, Shane MacGowan etc.)”
PERFORMER “Nick Cave & The Bad Seeds”
INDEX 01 00:00:00

Leave a Reply

Your email address will not be published. Required fields are marked *

This site uses Akismet to reduce spam. Learn how your comment data is processed.