Nick Cave & The Bad Seeds – Murder Ballads (Japanese Edition)




Artist: Nick Cave & The Bad Seeds
Year: 1996
Genre: Rock
Notes: Discogs
Add. Notes: Japanese Edition
Cover incl.: Yes
Encoder: FLAC
Bitrate: ~900 kBit/s (44.1 kHz/16 Bit/s)
Log & Cue incl.: Yes
Size: 545,36 MB
Password: “slam” (without ” “)


All Downloads/Hosters are compatible

Download 1
Turbobit.net
Rapidgator.net
KatFile.com
UploadRar.com
Download 2
Turbobit.net
Rapidgator.net
KatFile.com
UploadRar.com

Tracklist:

1 - Song Of Joy 
2 - Stagger Lee 
3 - Henry Lee 
4 - Lovely Creature 
5 - Where The Wild Roses Grow 
6 - The Curse Of Millhaven 
7 - The Kindness Of Strangers 
8 - Crow Jane 
9 - O'Malleys Bar 
10 - Death Is Not The End 
11 - The Ballad Of Robert Moore And Betty Coltrane 
12 - The Willow Garden 
13 - King Kong Kitchee Kitchee Ki-Mi-O

EAC-Log, CUE-Sheed & NFO:

Click to open spoiler
Exact Audio Copy V1.1 from 23. June 2015

EAC extraction logfile from 19. December 2015, 2:42

Nick Cave & The Bad Seeds / Murder Ballads [PCCY-00885]

Used drive : ASUS DRW-22B3S Adapter: 1 ID: 0

Read mode : Secure
Utilize accurate stream : Yes
Defeat audio cache : Yes
Make use of C2 pointers : No

Read offset correction : 6
Overread into Lead-In and Lead-Out : No
Fill up missing offset samples with silence : Yes
Delete leading and trailing silent blocks : No
Null samples used in CRC calculations : Yes
Used interface : Native Win32 interface for Win NT & 2000
Gap handling : Appended to previous track

Used output format : User Defined Encoder
Selected bitrate : 768 kBit/s
Quality : High
Add ID3 tag : No
Command line compressor : C:\Program Files\Exact Audio Copy\FLAC\FLAC.EXE
Additional command line options : -V -8 -T “Genre=%genre%” -T “Artist=%artist%” -T “Title=%title%” -T “Album=%albumtitle%” -T “Date=%year%” -T “Tracknumber=%tracknr%” -T “Comment=%comment%” %source%

TOC of the extracted CD

Track | Start | Length | Start sector | End sector
———————————————————
1 | 0:00.00 | 6:47.17 | 0 | 30541
2 | 6:47.17 | 5:15.10 | 30542 | 54176
3 | 12:02.27 | 3:58.15 | 54177 | 72041
4 | 16:00.42 | 4:13.55 | 72042 | 91071
5 | 20:14.22 | 3:57.05 | 91072 | 108851
6 | 24:11.27 | 6:55.65 | 108852 | 140041
7 | 31:07.17 | 4:39.20 | 140042 | 160986
8 | 35:46.37 | 4:14.43 | 160987 | 180079
9 | 40:01.05 | 14:28.12 | 180080 | 245191
10 | 54:29.17 | 4:29.08 | 245192 | 265374
11 | 58:58.25 | 3:34.67 | 265375 | 281491
12 | 62:33.17 | 4:01.40 | 281492 | 299606
13 | 66:34.57 | 3:07.50 | 299607 | 313681

Track 1

Filename H:\g.y.m\Nick Cave & The Bad Seeds\1996 – Murder Ballads [PCCY-00885]\01. Song Of Joy.wav

Pre-gap length 0:00:02.00

Peak level 96.3 %
Extraction speed 6.2 X
Track quality 100.0 %
Test CRC 884FEC4F
Copy CRC 884FEC4F
Accurately ripped (confidence 1) [A75DC2C9] (AR v1)
Copy OK

Track 2

Filename H:\g.y.m\Nick Cave & The Bad Seeds\1996 – Murder Ballads [PCCY-00885]\02. Stagger Lee.wav

Pre-gap length 0:00:01.22

Peak level 96.5 %
Extraction speed 6.8 X
Track quality 100.0 %
Test CRC DC83FF3B
Copy CRC DC83FF3B
Accurately ripped (confidence 1) [9DDCF4AA] (AR v1)
Copy OK

Track 3

Filename H:\g.y.m\Nick Cave & The Bad Seeds\1996 – Murder Ballads [PCCY-00885]\03. Henry Lee (Feat. PJ Harvey).wav

Pre-gap length 0:00:01.47

Peak level 95.6 %
Extraction speed 7.1 X
Track quality 100.0 %
Test CRC C5C1FD10
Copy CRC C5C1FD10
Accurately ripped (confidence 1) [E25B06FC] (AR v1)
Copy OK

Track 4

Filename H:\g.y.m\Nick Cave & The Bad Seeds\1996 – Murder Ballads [PCCY-00885]\04. Lovely Creature.wav

Pre-gap length 0:00:02.57

Peak level 99.8 %
Extraction speed 7.5 X
Track quality 100.0 %
Test CRC AD27E6AB
Copy CRC AD27E6AB
Accurately ripped (confidence 1) [4318CFFE] (AR v1)
Copy OK

Track 5

Filename H:\g.y.m\Nick Cave & The Bad Seeds\1996 – Murder Ballads [PCCY-00885]\05. Where The Wild Roses Grow (Feat. Kylie Minogue).wav

Pre-gap length 0:00:01.47

Peak level 100.0 %
Extraction speed 6.5 X
Track quality 99.9 %
Test CRC 02210496
Copy CRC 02210496
Accurately ripped (confidence 1) [81CE6E4B] (AR v1)
Copy OK

Track 6

Filename H:\g.y.m\Nick Cave & The Bad Seeds\1996 – Murder Ballads [PCCY-00885]\06. The Curse Of Millhaven.wav

Pre-gap length 0:00:01.35

Peak level 99.9 %
Extraction speed 8.9 X
Track quality 100.0 %
Test CRC 26E12158
Copy CRC 26E12158
Accurately ripped (confidence 1) [301CC0F7] (AR v1)
Copy OK

Track 7

Filename H:\g.y.m\Nick Cave & The Bad Seeds\1996 – Murder Ballads [PCCY-00885]\07. The Kindness Of Strangers.wav

Pre-gap length 0:00:01.52

Peak level 98.8 %
Extraction speed 9.0 X
Track quality 100.0 %
Test CRC F9FC332F
Copy CRC F9FC332F
Accurately ripped (confidence 1) [685F454D] (AR v1)
Copy OK

Track 8

Filename H:\g.y.m\Nick Cave & The Bad Seeds\1996 – Murder Ballads [PCCY-00885]\08. Crow Jane.wav

Pre-gap length 0:00:01.67

Peak level 99.8 %
Extraction speed 9.3 X
Track quality 100.0 %
Test CRC FF710994
Copy CRC FF710994
Accurately ripped (confidence 1) [7481D18B] (AR v1)
Copy OK

Track 9

Filename H:\g.y.m\Nick Cave & The Bad Seeds\1996 – Murder Ballads [PCCY-00885]\09. O’Malley’s Bar.wav

Pre-gap length 0:00:01.18

Peak level 100.0 %
Extraction speed 10.4 X
Track quality 99.9 %
Test CRC 687E2177
Copy CRC 687E2177
Accurately ripped (confidence 1) [BE0CD91D] (AR v1)
Copy OK

Track 10

Filename H:\g.y.m\Nick Cave & The Bad Seeds\1996 – Murder Ballads [PCCY-00885]\10. Death Is Not The End (Feat. PJ Harvey, Shane MacGowan etc.).wav

Peak level 100.0 %
Extraction speed 10.8 X
Track quality 100.0 %
Test CRC D752C3D1
Copy CRC D752C3D1
Accurately ripped (confidence 1) [0DF7FC27] (AR v1)
Copy OK

Track 11

Filename H:\g.y.m\Nick Cave & The Bad Seeds\1996 – Murder Ballads [PCCY-00885]\11. The Ballad Of Robert Moore & Betty Coltrane.wav

Pre-gap length 0:00:02.13

Peak level 100.0 %
Extraction speed 10.6 X
Track quality 100.0 %
Test CRC FC419CA7
Copy CRC FC419CA7
Accurately ripped (confidence 1) [5489BF50] (AR v1)
Copy OK

Track 12

Filename H:\g.y.m\Nick Cave & The Bad Seeds\1996 – Murder Ballads [PCCY-00885]\12. The Willow Garden.wav

Pre-gap length 0:00:01.50

Peak level 100.0 %
Extraction speed 11.0 X
Track quality 100.0 %
Test CRC 01FC950F
Copy CRC 01FC950F
Accurately ripped (confidence 1) [0E634507] (AR v1)
Copy OK

Track 13

Filename H:\g.y.m\Nick Cave & The Bad Seeds\1996 – Murder Ballads [PCCY-00885]\13. King Kong Kitchee Kitchee Ki-Mi-O..wav

Pre-gap length 0:00:04.00

Peak level 97.6 %
Extraction speed 10.9 X
Track quality 100.0 %
Test CRC FB775931
Copy CRC FB775931
Accurately ripped (confidence 1) [ED06B305] (AR v1)
Copy OK

All tracks accurately ripped

No errors occurred

End of status report

==== Log checksum 666DC2682F424415FB2E167B0689052B148D7E5BA1DF3AD021B0CFB1254C19F3 ====

REM GENRE “Alternative Rock”
REM DATE 1996
REM DISCID BC10560D
REM COMMENT “ExactAudioCopy v1.1”
PERFORMER “Nick Cave & The Bad Seeds”
TITLE “Murder Ballads [PCCY-00885]”
FILE “01. Song Of Joy.wav” WAVE
TRACK 01 AUDIO
TITLE “Song Of Joy”
PERFORMER “Nick Cave & The Bad Seeds”
INDEX 01 00:00:00
TRACK 02 AUDIO
TITLE “Stagger Lee”
PERFORMER “Nick Cave & The Bad Seeds”
INDEX 00 06:45:70
FILE “02. Stagger Lee.wav” WAVE
INDEX 01 00:00:00
TRACK 03 AUDIO
TITLE “Henry Lee (Feat. PJ Harvey)”
PERFORMER “Nick Cave & The Bad Seeds”
INDEX 00 05:13:38
FILE “03. Henry Lee (Feat. PJ Harvey).wav” WAVE
INDEX 01 00:00:00
TRACK 04 AUDIO
TITLE “Lovely Creature”
PERFORMER “Nick Cave & The Bad Seeds”
INDEX 00 03:55:33
FILE “04. Lovely Creature.wav” WAVE
INDEX 01 00:00:00
TRACK 05 AUDIO
TITLE “Where The Wild Roses Grow (Feat. Kylie Minogue)”
PERFORMER “Nick Cave & The Bad Seeds”
INDEX 00 04:12:08
FILE “05. Where The Wild Roses Grow (Feat. Kylie Minogue).wav” WAVE
INDEX 01 00:00:00
TRACK 06 AUDIO
TITLE “The Curse Of Millhaven”
PERFORMER “Nick Cave & The Bad Seeds”
INDEX 00 03:55:45
FILE “06. The Curse Of Millhaven.wav” WAVE
INDEX 01 00:00:00
TRACK 07 AUDIO
TITLE “The Kindness Of Strangers”
PERFORMER “Nick Cave & The Bad Seeds”
INDEX 00 06:54:13
FILE “07. The Kindness Of Strangers.wav” WAVE
INDEX 01 00:00:00
TRACK 08 AUDIO
TITLE “Crow Jane”
PERFORMER “Nick Cave & The Bad Seeds”
INDEX 00 04:37:28
FILE “08. Crow Jane.wav” WAVE
INDEX 01 00:00:00
TRACK 09 AUDIO
TITLE “O’Malley’s Bar”
PERFORMER “Nick Cave & The Bad Seeds”
INDEX 00 04:13:25
FILE “09. O’Malley’s Bar.wav” WAVE
INDEX 01 00:00:00
FILE “10. Death Is Not The End (Feat. PJ Harvey, Shane MacGowan etc.).wav” WAVE
TRACK 10 AUDIO
TITLE “Death Is Not The End (Feat. PJ Harvey, Shane MacGowan etc.)”
PERFORMER “Nick Cave & The Bad Seeds”
INDEX 01 00:00:00
TRACK 11 AUDIO
TITLE “The Ballad Of Robert Moore & Betty Coltrane”
PERFORMER “Nick Cave & The Bad Seeds”
INDEX 00 04:26:70
FILE “11. The Ballad Of Robert Moore & Betty Coltrane.wav” WAVE
INDEX 01 00:00:00
TRACK 12 AUDIO
TITLE “The Willow Garden”
PERFORMER “Nick Cave & The Bad Seeds”
INDEX 00 03:33:17
FILE “12. The Willow Garden.wav” WAVE
INDEX 01 00:00:00
TRACK 13 AUDIO
TITLE “King Kong Kitchee Kitchee Ki-Mi-O.”
PERFORMER “Nick Cave & The Bad Seeds”
INDEX 00 03:57:40
FILE “13. King Kong Kitchee Kitchee Ki-Mi-O..wav” WAVE
INDEX 01 00:00:00


Leave a Reply

Your email address will not be published. Required fields are marked *

This site uses Akismet to reduce spam. Learn how your comment data is processed.