Nick Cave & The Bad Seeds – Live Seeds




Artist: Nick Cave & The Bad Seeds
Year: 1993
Genre: Rock
Notes: Discogs
Add. Notes:
Cover incl.: Yes
Encoder: FLAC
Bitrate: ~1000 kBit/s (44.1 kHz/16 Bit/s)
Log & Cue incl.: Yes
Size: 816,85 MB
Password: “slam” (without ” “)


All Downloads/Hosters are compatible

Download 1
Turbobit.net
Rapidgator.net
UploadEver.com
JustUpload.io
UsersDrive.com
Download 2
Turbobit.net
Rapidgator.net
UploadEver.com
JustUpload.io
UsersDrive.com
Download 3
Turbobit.net
Rapidgator.net
UploadEver.com
JustUpload.io
UsersDrive.com

Tracklist:

1 - The Mercy Seat - 4:45
2 - Deanna - 4:40
3 - The Ship Song - 4:18
4 - Papa Won't Leave You Henry - 5:04
5 - Plain Gold Ring - 5:48
6 - John Finn's Wife - 5:42
7 - Tupelo - 6:04
8 - Brother My Cup Is Empty - 3:13
9 - The Weeping Song - 3:59
10 - Jack The Ripper - 3:48
11 - The Good Son - 4:27
12 - From Her To Eternity - 4:53
13 - New Morning - 3:22

EAC-Log, CUE-Sheed & NFO:

Click to open spoiler
Exact Audio Copy V1.0 beta 3 from 29. August 2011

EAC extraction logfile from 20. December 2013, 19:42

Nick Cave & The Bad Seeds / Live Seeds [CD STUMM122]

Used drive : ASUS DRW-22B3S Adapter: 3 ID: 1

Read mode : Secure
Utilize accurate stream : Yes
Defeat audio cache : Yes
Make use of C2 pointers : No

Read offset correction : 6
Overread into Lead-In and Lead-Out : No
Fill up missing offset samples with silence : Yes
Delete leading and trailing silent blocks : No
Null samples used in CRC calculations : Yes
Used interface : Installed external ASPI interface
Gap handling : Appended to previous track

Used output format : User Defined Encoder
Selected bitrate : 768 kBit/s
Quality : High
Add ID3 tag : No
Command line compressor : C:\Program Files\Exact Audio Copy\FLAC\FLAC.EXE
Additional command line options : -V -8 -T “Genre=%genre%” -T “Artist=%artist%” -T “Title=%title%” -T “Album=%albumtitle%” -T “Date=%year%” -T “Tracknumber=%tracknr%” -T “Comment=%comment%” %source%

TOC of the extracted CD

Track | Start | Length | Start sector | End sector
———————————————————
1 | 0:00.00 | 4:46.60 | 0 | 21509
2 | 4:46.60 | 4:40.65 | 21510 | 42574
3 | 9:27.50 | 4:18.65 | 42575 | 61989
4 | 13:46.40 | 6:28.25 | 61990 | 91114
5 | 20:14.65 | 5:04.07 | 91115 | 113921
6 | 25:18.72 | 5:42.68 | 113922 | 139639
7 | 31:01.65 | 6:04.40 | 139640 | 166979
8 | 37:06.30 | 3:13.25 | 166980 | 181479
9 | 40:19.55 | 3:59.52 | 181480 | 199456
10 | 44:19.32 | 3:48.65 | 199457 | 216621
11 | 48:08.22 | 4:27.33 | 216622 | 236679
12 | 52:35.55 | 4:53.22 | 236680 | 258676
13 | 57:29.02 | 3:22.00 | 258677 | 273826

Track 1

Filename H:\gym1974 (rutracker.org)\Nick Cave & The Bad Seeds\1993 – Live Seeds [CD STUMM122]\01. The Mercy Seat.wav

Pre-gap length 0:00:02.00

Peak level 82.2 %
Extraction speed 1.5 X
Track quality 99.9 %
Test CRC 3C22886C
Copy CRC 3C22886C
Accurately ripped (confidence 16) [7D39E0DB] (AR v2)
Copy OK

Track 2

Filename H:\gym1974 (rutracker.org)\Nick Cave & The Bad Seeds\1993 – Live Seeds [CD STUMM122]\02. Deanna.wav

Peak level 91.0 %
Extraction speed 1.7 X
Track quality 99.9 %
Test CRC 1EB1D3A2
Copy CRC 1EB1D3A2
Accurately ripped (confidence 16) [7D8497C0] (AR v2)
Copy OK

Track 3

Filename H:\gym1974 (rutracker.org)\Nick Cave & The Bad Seeds\1993 – Live Seeds [CD STUMM122]\03. The Ship Song.wav

Peak level 85.3 %
Extraction speed 2.4 X
Track quality 100.0 %
Test CRC 925C1F53
Copy CRC 925C1F53
Accurately ripped (confidence 16) [B538A208] (AR v2)
Copy OK

Track 4

Filename H:\gym1974 (rutracker.org)\Nick Cave & The Bad Seeds\1993 – Live Seeds [CD STUMM122]\04. Papa Won’t Leave You Henry.wav

Peak level 100.0 %
Extraction speed 2.7 X
Track quality 100.0 %
Test CRC 097F5557
Copy CRC 097F5557
Accurately ripped (confidence 16) [2C4EA804] (AR v2)
Copy OK

Track 5

Filename H:\gym1974 (rutracker.org)\Nick Cave & The Bad Seeds\1993 – Live Seeds [CD STUMM122]\05. Plain Gold Ring.wav

Peak level 82.7 %
Extraction speed 2.2 X
Track quality 99.9 %
Test CRC 06D0D80B
Copy CRC 06D0D80B
Accurately ripped (confidence 17) [C6792715] (AR v2)
Copy OK

Track 6

Filename H:\gym1974 (rutracker.org)\Nick Cave & The Bad Seeds\1993 – Live Seeds [CD STUMM122]\06. John Finn’s Wife.wav

Peak level 96.2 %
Extraction speed 3.1 X
Track quality 100.0 %
Test CRC A48AF1D7
Copy CRC A48AF1D7
Accurately ripped (confidence 16) [6C3F89C5] (AR v2)
Copy OK

Track 7

Filename H:\gym1974 (rutracker.org)\Nick Cave & The Bad Seeds\1993 – Live Seeds [CD STUMM122]\07. Tupelo.wav

Peak level 81.9 %
Extraction speed 2.6 X
Track quality 99.9 %
Test CRC CA13F197
Copy CRC CA13F197
Accurately ripped (confidence 16) [118FDAFD] (AR v2)
Copy OK

Track 8

Filename H:\gym1974 (rutracker.org)\Nick Cave & The Bad Seeds\1993 – Live Seeds [CD STUMM122]\08. Brother My Cup Is Empty.wav

Peak level 82.2 %
Extraction speed 3.1 X
Track quality 100.0 %
Test CRC 0268A68D
Copy CRC 0268A68D
Accurately ripped (confidence 16) [AA55DE03] (AR v2)
Copy OK

Track 9

Filename H:\gym1974 (rutracker.org)\Nick Cave & The Bad Seeds\1993 – Live Seeds [CD STUMM122]\09. The Weeping Song.wav

Peak level 86.9 %
Extraction speed 2.4 X
Track quality 99.9 %
Test CRC 4B577B36
Copy CRC 4B577B36
Accurately ripped (confidence 16) [1B5A77F3] (AR v2)
Copy OK

Track 10

Filename H:\gym1974 (rutracker.org)\Nick Cave & The Bad Seeds\1993 – Live Seeds [CD STUMM122]\10. Jack the Ripper.wav

Peak level 100.0 %
Extraction speed 3.4 X
Track quality 100.0 %
Test CRC 335D7846
Copy CRC 335D7846
Accurately ripped (confidence 16) [CA6FC80D] (AR v2)
Copy OK

Track 11

Filename H:\gym1974 (rutracker.org)\Nick Cave & The Bad Seeds\1993 – Live Seeds [CD STUMM122]\11. The Good Son.wav

Peak level 83.4 %
Extraction speed 3.6 X
Track quality 100.0 %
Test CRC 3492192B
Copy CRC 3492192B
Accurately ripped (confidence 16) [E6573C32] (AR v2)
Copy OK

Track 12

Filename H:\gym1974 (rutracker.org)\Nick Cave & The Bad Seeds\1993 – Live Seeds [CD STUMM122]\12. From Her To Eternity.wav

Peak level 96.1 %
Extraction speed 3.8 X
Track quality 100.0 %
Test CRC EF3B40CE
Copy CRC EF3B40CE
Accurately ripped (confidence 16) [CAFF0185] (AR v2)
Copy OK

Track 13

Filename H:\gym1974 (rutracker.org)\Nick Cave & The Bad Seeds\1993 – Live Seeds [CD STUMM122]\13. New Morning.wav

Peak level 100.0 %
Extraction speed 3.7 X
Track quality 100.0 %
Test CRC C563FDB0
Copy CRC C563FDB0
Accurately ripped (confidence 16) [EDE82B8F] (AR v2)
Copy OK

All tracks accurately ripped

No errors occurred

End of status report

==== Log checksum 28D298E73A8B3EB2B67D43D16569A6C68A97F60389158B0C9AE82B6CC59CFC6B ====

REM GENRE “Alternative rock”
REM DATE 1993
REM DISCID B40E430D
REM COMMENT “ExactAudioCopy v1.0b3”
PERFORMER “Nick Cave & The Bad Seeds”
TITLE “Live Seeds [CD STUMM122]”
FILE “01. The Mercy Seat.wav” WAVE
TRACK 01 AUDIO
TITLE “The Mercy Seat”
PERFORMER “Nick Cave & The Bad Seeds”
INDEX 01 00:00:00
FILE “02. Deanna.wav” WAVE
TRACK 02 AUDIO
TITLE “Deanna”
PERFORMER “Nick Cave & The Bad Seeds”
INDEX 01 00:00:00
FILE “03. The Ship Song.wav” WAVE
TRACK 03 AUDIO
TITLE “The Ship Song”
PERFORMER “Nick Cave & The Bad Seeds”
INDEX 01 00:00:00
FILE “04. Papa Won’t Leave You Henry.wav” WAVE
TRACK 04 AUDIO
TITLE “Papa Won’t Leave You Henry”
PERFORMER “Nick Cave & The Bad Seeds”
INDEX 01 00:00:00
FILE “05. Plain Gold Ring.wav” WAVE
TRACK 05 AUDIO
TITLE “Plain Gold Ring”
PERFORMER “Nick Cave & The Bad Seeds”
INDEX 01 00:00:00
FILE “06. John Finn’s Wife.wav” WAVE
TRACK 06 AUDIO
TITLE “John Finn’s Wife”
PERFORMER “Nick Cave & The Bad Seeds”
INDEX 01 00:00:00
FILE “07. Tupelo.wav” WAVE
TRACK 07 AUDIO
TITLE “Tupelo”
PERFORMER “Nick Cave & The Bad Seeds”
INDEX 01 00:00:00
FILE “08. Brother My Cup Is Empty.wav” WAVE
TRACK 08 AUDIO
TITLE “Brother My Cup Is Empty”
PERFORMER “Nick Cave & The Bad Seeds”
INDEX 01 00:00:00
FILE “09. The Weeping Song.wav” WAVE
TRACK 09 AUDIO
TITLE “The Weeping Song”
PERFORMER “Nick Cave & The Bad Seeds”
INDEX 01 00:00:00
FILE “10. Jack the Ripper.wav” WAVE
TRACK 10 AUDIO
TITLE “Jack the Ripper”
PERFORMER “Nick Cave & The Bad Seeds”
INDEX 01 00:00:00
FILE “11. The Good Son.wav” WAVE
TRACK 11 AUDIO
TITLE “The Good Son”
PERFORMER “Nick Cave & The Bad Seeds”
INDEX 01 00:00:00
FILE “12. From Her To Eternity.wav” WAVE
TRACK 12 AUDIO
TITLE “From Her To Eternity”
PERFORMER “Nick Cave & The Bad Seeds”
INDEX 01 00:00:00
FILE “13. New Morning.wav” WAVE
TRACK 13 AUDIO
TITLE “New Morning”
PERFORMER “Nick Cave & The Bad Seeds”
INDEX 01 00:00:00

Leave a Reply

Your email address will not be published. Required fields are marked *

This site uses Akismet to reduce spam. Learn how your comment data is processed.