Nick Cave & The Bad Seeds – Live From KCRW (Japanese Edition)




Artist: Nick Cave & The Bad Seeds
Year: 2013
Genre: Rock
Notes: Discogs
Add. Notes: Japanese Edition
Cover incl.: Yes
Encoder: FLAC
Bitrate: ~800 kBit/s (44.1 kHz/16 Bit/s)
Log & Cue incl.: Yes
Size: 359,49 MB
Password: “slam” (without ” “)


All Downloads/Hosters are compatible

Download 1
Turbobit.net
Rapidgator.net
UploadEver.com
KatFile.com
UsersDrive.com
Download 2
Turbobit.net
Rapidgator.net
UploadEver.com
KatFile.com
UsersDrive.com
Download 3
Turbobit.net
Rapidgator.net
UploadEver.com
KatFile.com
UsersDrive.com

Tracklist:

1 - Higgs Boson Blues - 8:46
2 - Far From Me - 5:27
3 - Stranger Than Kindness - 4:53
4 - The Mercy Seat - 5:11
5 - And No More Shall We Part - 3:51
6 - Wide Lovely Eyes - 4:13
7 - Mermaids - 5:23
8 - People Ain't No Good - 5:18
9 - Push The Sky Away - 4:46
10 - Jack The Ripper - 4:28

EAC-Log, CUE-Sheed & NFO:

Click to open spoiler
Exact Audio Copy V1.1 from 23. June 2015

EAC extraction logfile from 18. December 2015, 23:54

Nick Cave & The Bad Seeds / Live From KCRW [BS006CDJ]

Used drive : ASUS DRW-22B3S Adapter: 1 ID: 0

Read mode : Secure
Utilize accurate stream : Yes
Defeat audio cache : Yes
Make use of C2 pointers : No

Read offset correction : 6
Overread into Lead-In and Lead-Out : No
Fill up missing offset samples with silence : Yes
Delete leading and trailing silent blocks : No
Null samples used in CRC calculations : Yes
Used interface : Native Win32 interface for Win NT & 2000
Gap handling : Appended to previous track

Used output format : User Defined Encoder
Selected bitrate : 768 kBit/s
Quality : High
Add ID3 tag : No
Command line compressor : C:\Program Files\Exact Audio Copy\FLAC\FLAC.EXE
Additional command line options : -V -8 -T “Genre=%genre%” -T “Artist=%artist%” -T “Title=%title%” -T “Album=%albumtitle%” -T “Date=%year%” -T “Tracknumber=%tracknr%” -T “Comment=%comment%” %source%

TOC of the extracted CD

Track | Start | Length | Start sector | End sector
———————————————————
1 | 0:00.00 | 8:46.26 | 0 | 39475
2 | 8:46.26 | 5:27.11 | 39476 | 64011
3 | 14:13.37 | 4:53.31 | 64012 | 86017
4 | 19:06.68 | 5:11.04 | 86018 | 109346
5 | 24:17.72 | 3:50.64 | 109347 | 126660
6 | 28:08.61 | 4:13.12 | 126661 | 145647
7 | 32:21.73 | 5:23.15 | 145648 | 169887
8 | 37:45.13 | 5:18.12 | 169888 | 193749
9 | 43:03.25 | 4:46.31 | 193750 | 215230
10 | 47:49.56 | 4:28.07 | 215231 | 235337

Track 1

Filename H:\g.y.m\Nick Cave & The Bad Seeds\2013 – Live From KCRW [BS006CDJ]\01. Higgs Boson Blues.wav

Pre-gap length 0:00:02.00

Peak level 100.0 %
Extraction speed 5.8 X
Track quality 100.0 %
Test CRC 35048109
Copy CRC 35048109
Accurately ripped (confidence 111) [1824F72F] (AR v2)
Copy OK

Track 2

Filename H:\g.y.m\Nick Cave & The Bad Seeds\2013 – Live From KCRW [BS006CDJ]\02. Far From Me.wav

Peak level 100.0 %
Extraction speed 6.5 X
Track quality 100.0 %
Test CRC 5862FD95
Copy CRC 5862FD95
Accurately ripped (confidence 112) [ED7C22D7] (AR v2)
Copy OK

Track 3

Filename H:\g.y.m\Nick Cave & The Bad Seeds\2013 – Live From KCRW [BS006CDJ]\03. Stranger Than Kindness.wav

Peak level 100.0 %
Extraction speed 7.0 X
Track quality 100.0 %
Test CRC 3454B937
Copy CRC 3454B937
Accurately ripped (confidence 111) [C1CAC6C0] (AR v2)
Copy OK

Track 4

Filename H:\g.y.m\Nick Cave & The Bad Seeds\2013 – Live From KCRW [BS006CDJ]\04. The Mercy Seat.wav

Peak level 100.0 %
Extraction speed 6.5 X
Track quality 99.9 %
Test CRC 6A31E337
Copy CRC 6A31E337
Accurately ripped (confidence 112) [56F31729] (AR v2)
Copy OK

Track 5

Filename H:\g.y.m\Nick Cave & The Bad Seeds\2013 – Live From KCRW [BS006CDJ]\05. And No More Shall We Part.wav

Peak level 100.0 %
Extraction speed 7.7 X
Track quality 100.0 %
Test CRC AF31B307
Copy CRC AF31B307
Accurately ripped (confidence 111) [2695F8DC] (AR v2)
Copy OK

Track 6

Filename H:\g.y.m\Nick Cave & The Bad Seeds\2013 – Live From KCRW [BS006CDJ]\06. Wide Lovely Eyes.wav

Peak level 100.0 %
Extraction speed 8.1 X
Track quality 100.0 %
Test CRC C0730E55
Copy CRC C0730E55
Accurately ripped (confidence 110) [0D695C59] (AR v2)
Copy OK

Track 7

Filename H:\g.y.m\Nick Cave & The Bad Seeds\2013 – Live From KCRW [BS006CDJ]\07. Mermaids.wav

Peak level 100.0 %
Extraction speed 8.8 X
Track quality 100.0 %
Test CRC 16CCFE87
Copy CRC 16CCFE87
Accurately ripped (confidence 111) [B4290F4D] (AR v2)
Copy OK

Track 8

Filename H:\g.y.m\Nick Cave & The Bad Seeds\2013 – Live From KCRW [BS006CDJ]\08. People Ain’t No Good.wav

Peak level 100.0 %
Extraction speed 9.2 X
Track quality 100.0 %
Test CRC 0F1BE543
Copy CRC 0F1BE543
Accurately ripped (confidence 111) [25241B31] (AR v2)
Copy OK

Track 9

Filename H:\g.y.m\Nick Cave & The Bad Seeds\2013 – Live From KCRW [BS006CDJ]\09. Push The Sky Away.wav

Peak level 100.0 %
Extraction speed 9.4 X
Track quality 100.0 %
Test CRC 5C0AEF9C
Copy CRC 5C0AEF9C
Accurately ripped (confidence 111) [782826EE] (AR v2)
Copy OK

Track 10

Filename H:\g.y.m\Nick Cave & The Bad Seeds\2013 – Live From KCRW [BS006CDJ]\10. Jack The Ripper.wav

Peak level 100.0 %
Extraction speed 9.5 X
Track quality 100.0 %
Test CRC 581DC5F9
Copy CRC 581DC5F9
Accurately ripped (confidence 110) [275A52C7] (AR v2)
Copy OK

All tracks accurately ripped

No errors occurred

End of status report

==== Log checksum AD4066AF9C92FC206BBF9368183C1474DD5436C092226B8ED365DC1D04E92D79 ====

REM GENRE “Alternative Rock”
REM DATE 2013
REM DISCID 9C0C410A
REM COMMENT “ExactAudioCopy v1.1”
PERFORMER “Nick Cave & The Bad Seeds”
TITLE “Live From KCRW [BS006CDJ]”
FILE “01. Higgs Boson Blues.wav” WAVE
TRACK 01 AUDIO
TITLE “Higgs Boson Blues”
PERFORMER “Nick Cave & The Bad Seeds”
INDEX 01 00:00:00
FILE “02. Far From Me.wav” WAVE
TRACK 02 AUDIO
TITLE “Far From Me”
PERFORMER “Nick Cave & The Bad Seeds”
INDEX 01 00:00:00
FILE “03. Stranger Than Kindness.wav” WAVE
TRACK 03 AUDIO
TITLE “Stranger Than Kindness”
PERFORMER “Nick Cave & The Bad Seeds”
INDEX 01 00:00:00
FILE “04. The Mercy Seat.wav” WAVE
TRACK 04 AUDIO
TITLE “The Mercy Seat”
PERFORMER “Nick Cave & The Bad Seeds”
INDEX 01 00:00:00
FILE “05. And No More Shall We Part.wav” WAVE
TRACK 05 AUDIO
TITLE “And No More Shall We Part”
PERFORMER “Nick Cave & The Bad Seeds”
INDEX 01 00:00:00
FILE “06. Wide Lovely Eyes.wav” WAVE
TRACK 06 AUDIO
TITLE “Wide Lovely Eyes”
PERFORMER “Nick Cave & The Bad Seeds”
INDEX 01 00:00:00
FILE “07. Mermaids.wav” WAVE
TRACK 07 AUDIO
TITLE “Mermaids”
PERFORMER “Nick Cave & The Bad Seeds”
INDEX 01 00:00:00
FILE “08. People Ain’t No Good.wav” WAVE
TRACK 08 AUDIO
TITLE “People Ain’t No Good”
PERFORMER “Nick Cave & The Bad Seeds”
INDEX 01 00:00:00
FILE “09. Push The Sky Away.wav” WAVE
TRACK 09 AUDIO
TITLE “Push The Sky Away”
PERFORMER “Nick Cave & The Bad Seeds”
INDEX 01 00:00:00
FILE “10. Jack The Ripper.wav” WAVE
TRACK 10 AUDIO
TITLE “Jack The Ripper”
PERFORMER “Nick Cave & The Bad Seeds”
INDEX 01 00:00:00

Leave a Reply

Your email address will not be published. Required fields are marked *

This site uses Akismet to reduce spam. Learn how your comment data is processed.