Nick Cave & The Bad Seeds – Live At The Royal Albert Hall




Artist: Nick Cave & The Bad Seeds
Year: 2008
Genre: Rock
Notes: Discogs
Add. Notes:
Cover incl.: Yes
Encoder: FLAC
Bitrate: ~900 kBit/s (44.1 kHz/16 Bit/s)
Log & Cue incl.: Yes
Size: 392,02 MB
Password: “slam” (without ” “)


All Downloads/Hosters are compatible

Download 1
Turbobit.net
Rapidgator.net
KatFile.com
UploadRar.com
Download 2
Turbobit.net
Rapidgator.net
KatFile.com
UploadRar.com

Tracklist:

1 - Lime Tree Arbour - 3:42
2 - Stranger Than Kindness - 5:03
3 - Red Right Hand - 5:18
4 - I Let Love In - 4:13
5 - Brompton Oratory - 3:47
6 - Henry Lee - 4:04
7 - The Ship Song - 4:15
8 - Where The Wild Roses Grow - 4:13
9 - People Ain't No Good - 6:12
10 - Do You Love Me? - 4:32
11 - Far From Me - 6:12
12 - The Mercy Seat - 5:12

EAC-Log, CUE-Sheed & NFO:

Click to open spoiler
Exact Audio Copy V1.1 from 23. June 2015

EAC extraction logfile from 18. December 2015, 22:12

Nick Cave & The Bad Seeds / Live At The Royal Albert Hall [LTTN002]

Used drive : ASUS DRW-22B3S Adapter: 1 ID: 0

Read mode : Secure
Utilize accurate stream : Yes
Defeat audio cache : Yes
Make use of C2 pointers : No

Read offset correction : 6
Overread into Lead-In and Lead-Out : No
Fill up missing offset samples with silence : Yes
Delete leading and trailing silent blocks : No
Null samples used in CRC calculations : Yes
Used interface : Native Win32 interface for Win NT & 2000
Gap handling : Appended to previous track

Used output format : User Defined Encoder
Selected bitrate : 768 kBit/s
Quality : High
Add ID3 tag : No
Command line compressor : C:\Program Files\Exact Audio Copy\FLAC\FLAC.EXE
Additional command line options : -V -8 -T “Genre=%genre%” -T “Artist=%artist%” -T “Title=%title%” -T “Album=%albumtitle%” -T “Date=%year%” -T “Tracknumber=%tracknr%” -T “Comment=%comment%” %source%

TOC of the extracted CD

Track | Start | Length | Start sector | End sector
———————————————————
1 | 0:00.00 | 3:41.39 | 0 | 16613
2 | 3:41.39 | 5:03.05 | 16614 | 39343
3 | 8:44.44 | 5:18.32 | 39344 | 63225
4 | 14:03.01 | 4:12.48 | 63226 | 82173
5 | 18:15.49 | 3:47.32 | 82174 | 99230
6 | 22:03.06 | 4:03.43 | 99231 | 117498
7 | 26:06.49 | 4:15.09 | 117499 | 136632
8 | 30:21.58 | 4:12.65 | 136633 | 155597
9 | 34:34.48 | 6:11.44 | 155598 | 183466
10 | 40:46.17 | 4:31.67 | 183467 | 203858
11 | 45:18.09 | 6:12.16 | 203859 | 231774
12 | 51:30.25 | 5:12.06 | 231775 | 255180

Track 1

Filename H:\g.y.m\Nick Cave & The Bad Seeds\2008 – Live At The Royal Albert Hall [LTTN002]\01. Lime Tree Arbour.wav

Pre-gap length 0:00:02.00

Peak level 86.6 %
Extraction speed 4.6 X
Track quality 100.0 %
Test CRC 5B2C81D4
Copy CRC 5B2C81D4
Accurately ripped (confidence 10) [C9F41EBD] (AR v2)
Copy OK

Track 2

Filename H:\g.y.m\Nick Cave & The Bad Seeds\2008 – Live At The Royal Albert Hall [LTTN002]\02. Stranger Than Kindness.wav

Peak level 86.5 %
Extraction speed 5.5 X
Track quality 100.0 %
Test CRC F9D6BA94
Copy CRC F9D6BA94
Accurately ripped (confidence 10) [1F4C6784] (AR v2)
Copy OK

Track 3

Filename H:\g.y.m\Nick Cave & The Bad Seeds\2008 – Live At The Royal Albert Hall [LTTN002]\03. Red Right Hand.wav

Peak level 96.2 %
Extraction speed 6.2 X
Track quality 100.0 %
Test CRC C43580F4
Copy CRC C43580F4
Accurately ripped (confidence 10) [C791ECDC] (AR v2)
Copy OK

Track 4

Filename H:\g.y.m\Nick Cave & The Bad Seeds\2008 – Live At The Royal Albert Hall [LTTN002]\04. I Let Love In.wav

Peak level 88.5 %
Extraction speed 5.5 X
Track quality 99.9 %
Test CRC 3A4EEAEF
Copy CRC 3A4EEAEF
Accurately ripped (confidence 10) [15F4720C] (AR v2)
Copy OK

Track 5

Filename H:\g.y.m\Nick Cave & The Bad Seeds\2008 – Live At The Royal Albert Hall [LTTN002]\05. Brompton Oratory.wav

Peak level 87.8 %
Extraction speed 5.6 X
Track quality 99.9 %
Test CRC B43E784D
Copy CRC B43E784D
Accurately ripped (confidence 10) [DD163C89] (AR v2)
Copy OK

Track 6

Filename H:\g.y.m\Nick Cave & The Bad Seeds\2008 – Live At The Royal Albert Hall [LTTN002]\06. Henry Lee.wav

Peak level 87.7 %
Extraction speed 7.3 X
Track quality 100.0 %
Test CRC BF038A45
Copy CRC BF038A45
Accurately ripped (confidence 10) [BE358835] (AR v2)
Copy OK

Track 7

Filename H:\g.y.m\Nick Cave & The Bad Seeds\2008 – Live At The Royal Albert Hall [LTTN002]\07. The Ship Song.wav

Peak level 91.1 %
Extraction speed 7.7 X
Track quality 100.0 %
Test CRC 6F6C821E
Copy CRC 6F6C821E
Accurately ripped (confidence 10) [699A4DC4] (AR v2)
Copy OK

Track 8

Filename H:\g.y.m\Nick Cave & The Bad Seeds\2008 – Live At The Royal Albert Hall [LTTN002]\08. Where The Wild Roses Grow.wav

Peak level 98.3 %
Extraction speed 7.9 X
Track quality 100.0 %
Test CRC 87E9E133
Copy CRC 87E9E133
Accurately ripped (confidence 10) [9C5AF665] (AR v2)
Copy OK

Track 9

Filename H:\g.y.m\Nick Cave & The Bad Seeds\2008 – Live At The Royal Albert Hall [LTTN002]\09. People Ain’t No Good.wav

Peak level 90.0 %
Extraction speed 8.7 X
Track quality 100.0 %
Test CRC 3BDEF988
Copy CRC 3BDEF988
Accurately ripped (confidence 10) [210C3F7C] (AR v2)
Copy OK

Track 10

Filename H:\g.y.m\Nick Cave & The Bad Seeds\2008 – Live At The Royal Albert Hall [LTTN002]\10. Do You Love Me.wav

Peak level 89.6 %
Extraction speed 7.4 X
Track quality 99.9 %
Test CRC EBC9A7D8
Copy CRC EBC9A7D8
Accurately ripped (confidence 10) [0ECE4969] (AR v2)
Copy OK

Track 11

Filename H:\g.y.m\Nick Cave & The Bad Seeds\2008 – Live At The Royal Albert Hall [LTTN002]\11. Far From Me.wav

Peak level 88.6 %
Extraction speed 9.6 X
Track quality 100.0 %
Test CRC 1D901A6F
Copy CRC 1D901A6F
Accurately ripped (confidence 10) [31DC48D6] (AR v2)
Copy OK

Track 12

Filename H:\g.y.m\Nick Cave & The Bad Seeds\2008 – Live At The Royal Albert Hall [LTTN002]\12. The Mercy Seat.wav

Peak level 88.9 %
Extraction speed 8.4 X
Track quality 99.9 %
Test CRC CF916756
Copy CRC CF916756
Accurately ripped (confidence 10) [C112F5DC] (AR v2)
Copy OK

All tracks accurately ripped

No errors occurred

End of status report

==== Log checksum BF868315A13844E4C7C00D7393C017284FE94983C7D4D6C4FDB64975DC10ED11 ====

REM GENRE “Alternative Rock”
REM DATE 2008
REM DISCID 9F0D4A0C
REM COMMENT “ExactAudioCopy v1.1”
PERFORMER “Nick Cave & The Bad Seeds”
TITLE “Live At The Royal Albert Hall [LTTN002]”
FILE “01. Lime Tree Arbour.wav” WAVE
TRACK 01 AUDIO
TITLE “Lime Tree Arbour”
PERFORMER “Nick Cave & The Bad Seeds”
FLAGS DCP
INDEX 01 00:00:00
FILE “02. Stranger Than Kindness.wav” WAVE
TRACK 02 AUDIO
TITLE “Stranger Than Kindness”
PERFORMER “Nick Cave & The Bad Seeds”
FLAGS DCP
INDEX 01 00:00:00
FILE “03. Red Right Hand.wav” WAVE
TRACK 03 AUDIO
TITLE “Red Right Hand”
PERFORMER “Nick Cave & The Bad Seeds”
FLAGS DCP
INDEX 01 00:00:00
FILE “04. I Let Love In.wav” WAVE
TRACK 04 AUDIO
TITLE “I Let Love In”
PERFORMER “Nick Cave & The Bad Seeds”
FLAGS DCP
INDEX 01 00:00:00
FILE “05. Brompton Oratory.wav” WAVE
TRACK 05 AUDIO
TITLE “Brompton Oratory”
PERFORMER “Nick Cave & The Bad Seeds”
FLAGS DCP
INDEX 01 00:00:00
FILE “06. Henry Lee.wav” WAVE
TRACK 06 AUDIO
TITLE “Henry Lee”
PERFORMER “Nick Cave & The Bad Seeds”
FLAGS DCP
INDEX 01 00:00:00
FILE “07. The Ship Song.wav” WAVE
TRACK 07 AUDIO
TITLE “The Ship Song”
PERFORMER “Nick Cave & The Bad Seeds”
FLAGS DCP
INDEX 01 00:00:00
FILE “08. Where The Wild Roses Grow.wav” WAVE
TRACK 08 AUDIO
TITLE “Where The Wild Roses Grow”
PERFORMER “Nick Cave & The Bad Seeds”
FLAGS DCP
INDEX 01 00:00:00
FILE “09. People Ain’t No Good.wav” WAVE
TRACK 09 AUDIO
TITLE “People Ain’t No Good”
PERFORMER “Nick Cave & The Bad Seeds”
FLAGS DCP
INDEX 01 00:00:00
FILE “10. Do You Love Me.wav” WAVE
TRACK 10 AUDIO
TITLE “Do You Love Me?”
PERFORMER “Nick Cave & The Bad Seeds”
FLAGS DCP
INDEX 01 00:00:00
FILE “11. Far From Me.wav” WAVE
TRACK 11 AUDIO
TITLE “Far From Me”
PERFORMER “Nick Cave & The Bad Seeds”
FLAGS DCP
INDEX 01 00:00:00
FILE “12. The Mercy Seat.wav” WAVE
TRACK 12 AUDIO
TITLE “The Mercy Seat”
PERFORMER “Nick Cave & The Bad Seeds”
FLAGS DCP
INDEX 01 00:00:00


Leave a Reply

Your email address will not be published. Required fields are marked *

This site uses Akismet to reduce spam. Learn how your comment data is processed.