Nick Cave & The Bad Seeds – Let Love In (Japanese Edition)




Artist: Nick Cave & The Bad Seeds
Year: 1994
Genre: Rock
Notes: Discogs
Add. Notes: Japanese Edition
Encoder: FLAC
Bitrate: ~1000 kBit/s (44.1 kHz/16 Bit/s)
Bin/Cue incl.: Yes
Size: 467,18 MB
Password: “slam” (without ” “)


http://www.share-online.biz/dl/DZFFYSRPOK
https://rapidgator.net/file/70f611bb5a8e44a11230e325e654fbfe
https://uploadbyte.com/antlqr36t662
https://justupload.io/qmjab813ono6
https://uploadever.com/zxtgg72nu6a4

Tracklist:

1 - Do You Love Me ? - 5:56
2 - Nobody's Baby Now - 3:52
3 - Loverman - 6:22
4 - Jangling Jack - 2:47
5 - Red Right Hand - 6:10
6 - I Let Love In - 4:14
7 - Thirsty Dog - 3:38
8 - Ain't Gonna Rain Anymore - 3:46
9 - Lay Me Low - 5:08
10 - Do You Love Me ? (Part 2) - 6:12

EAC-Log, CUE-Sheed & NFO:

Click to open spoiler
Exact Audio Copy V1.0 beta 3 from 29. August 2011

EAC extraction logfile from 6. March 2015, 23:25

Nick Cave & The Bad Seeds / Let Love In [PCCY-00547]

Used drive : ASUS DRW-22B3S Adapter: 3 ID: 1

Read mode : Secure
Utilize accurate stream : Yes
Defeat audio cache : Yes
Make use of C2 pointers : No

Read offset correction : 6
Overread into Lead-In and Lead-Out : No
Fill up missing offset samples with silence : Yes
Delete leading and trailing silent blocks : No
Null samples used in CRC calculations : Yes
Used interface : Native Win32 interface for Win NT & 2000
Gap handling : Appended to previous track

Used output format : User Defined Encoder
Selected bitrate : 768 kBit/s
Quality : High
Add ID3 tag : No
Command line compressor : C:\Program Files\Exact Audio Copy\FLAC\FLAC.EXE
Additional command line options : -V -8 -T “Genre=%genre%” -T “Artist=%artist%” -T “Title=%title%” -T “Album=%albumtitle%” -T “Date=%year%” -T “Tracknumber=%tracknr%” -T “Comment=%comment%” %source%

TOC of the extracted CD

Track | Start | Length | Start sector | End sector
———————————————————
1 | 0:00.00 | 5:56.17 | 0 | 26716
2 | 5:56.17 | 3:52.25 | 26717 | 44141
3 | 9:48.42 | 6:21.73 | 44142 | 72789
4 | 16:10.40 | 2:47.00 | 72790 | 85314
5 | 18:57.40 | 6:10.42 | 85315 | 113106
6 | 25:08.07 | 4:14.58 | 113107 | 132214
7 | 29:22.65 | 3:48.55 | 132215 | 149369
8 | 33:11.45 | 3:46.02 | 149370 | 166321
9 | 36:57.47 | 5:08.70 | 166322 | 189491
10 | 42:06.42 | 6:12.33 | 189492 | 217424

Track 1

Filename H:\g.y.m\Nick Cave & The Bad Seeds\1994 – Let Love In [PCCY-00547]\01. Do You Love Me.wav

Pre-gap length 0:00:02.00

Peak level 94.4 %
Extraction speed 4.8 X
Track quality 99.9 %
Test CRC B1F13CCA
Copy CRC B1F13CCA
Accurately ripped (confidence 2) [8B42F2EA] (AR v1)
Copy OK

Track 2

Filename H:\g.y.m\Nick Cave & The Bad Seeds\1994 – Let Love In [PCCY-00547]\02. Nobody’s Baby Now.wav

Peak level 100.0 %
Extraction speed 5.8 X
Track quality 100.0 %
Test CRC 836B3ECF
Copy CRC 836B3ECF
Accurately ripped (confidence 2) [A5DC4EAA] (AR v1)
Copy OK

Track 3

Filename H:\g.y.m\Nick Cave & The Bad Seeds\1994 – Let Love In [PCCY-00547]\03. Loverman.wav

Peak level 100.0 %
Extraction speed 6.8 X
Track quality 100.0 %
Test CRC 73293A5E
Copy CRC 73293A5E
Accurately ripped (confidence 2) [6F181462] (AR v1)
Copy OK

Track 4

Filename H:\g.y.m\Nick Cave & The Bad Seeds\1994 – Let Love In [PCCY-00547]\04. Jangling Jack.wav

Peak level 100.0 %
Extraction speed 5.0 X
Track quality 99.9 %
Test CRC 9216A0E3
Copy CRC 9216A0E3
Accurately ripped (confidence 2) [9E36213E] (AR v1)
Copy OK

Track 5

Filename H:\g.y.m\Nick Cave & The Bad Seeds\1994 – Let Love In [PCCY-00547]\05. Red Right Hand.wav

Peak level 100.0 %
Extraction speed 7.7 X
Track quality 100.0 %
Test CRC 1DAA13DB
Copy CRC 1DAA13DB
Accurately ripped (confidence 2) [4A7D1139] (AR v1)
Copy OK

Track 6

Filename H:\g.y.m\Nick Cave & The Bad Seeds\1994 – Let Love In [PCCY-00547]\06. I Let Love In.wav

Peak level 97.0 %
Extraction speed 7.9 X
Track quality 100.0 %
Test CRC 2F0CFB47
Copy CRC 2F0CFB47
Accurately ripped (confidence 2) [52C210B6] (AR v1)
Copy OK

Track 7

Filename H:\g.y.m\Nick Cave & The Bad Seeds\1994 – Let Love In [PCCY-00547]\07. Thirsty Dog.wav

Peak level 100.0 %
Extraction speed 6.6 X
Track quality 99.9 %
Test CRC EEE4DFEE
Copy CRC EEE4DFEE
Accurately ripped (confidence 2) [87506A4B] (AR v1)
Copy OK

Track 8

Filename H:\g.y.m\Nick Cave & The Bad Seeds\1994 – Let Love In [PCCY-00547]\08. Ain’t Gonna Rain Anymore.wav

Pre-gap length 0:00:01.53

Peak level 91.3 %
Extraction speed 8.4 X
Track quality 100.0 %
Test CRC FA05DA79
Copy CRC FA05DA79
Accurately ripped (confidence 2) [727980CA] (AR v1)
Copy OK

Track 9

Filename H:\g.y.m\Nick Cave & The Bad Seeds\1994 – Let Love In [PCCY-00547]\09. Lay Me Low.wav

Peak level 100.0 %
Extraction speed 9.0 X
Track quality 100.0 %
Test CRC DFD4AA08
Copy CRC DFD4AA08
Accurately ripped (confidence 2) [F29AFC80] (AR v1)
Copy OK

Track 10

Filename H:\g.y.m\Nick Cave & The Bad Seeds\1994 – Let Love In [PCCY-00547]\10. Do You Love Me (Part 2).wav

Peak level 95.6 %
Extraction speed 9.7 X
Track quality 100.0 %
Test CRC E66F80A8
Copy CRC E66F80A8
Accurately ripped (confidence 2) [A1BF34B7] (AR v1)
Copy OK

All tracks accurately ripped

No errors occurred

End of status report

==== Log checksum 6DE437D431C892F8C26AA4210413BE990AACDEE9C625ACF8AD17DEF986007B7A ====

REM GENRE “Alternative Rock”
REM DATE 1994
REM DISCID 8E0B530A
REM COMMENT “ExactAudioCopy v1.0b3”
PERFORMER “Nick Cave & The Bad Seeds”
TITLE “Let Love In [PCCY-00547]”
FILE “01. Do You Love Me.wav” WAVE
TRACK 01 AUDIO
TITLE “Do You Love Me?”
PERFORMER “Nick Cave & The Bad Seeds”
INDEX 01 00:00:00
FILE “02. Nobody’s Baby Now.wav” WAVE
TRACK 02 AUDIO
TITLE “Nobody’s Baby Now”
PERFORMER “Nick Cave & The Bad Seeds”
INDEX 01 00:00:00
FILE “03. Loverman.wav” WAVE
TRACK 03 AUDIO
TITLE “Loverman”
PERFORMER “Nick Cave & The Bad Seeds”
INDEX 01 00:00:00
FILE “04. Jangling Jack.wav” WAVE
TRACK 04 AUDIO
TITLE “Jangling Jack”
PERFORMER “Nick Cave & The Bad Seeds”
INDEX 01 00:00:00
FILE “05. Red Right Hand.wav” WAVE
TRACK 05 AUDIO
TITLE “Red Right Hand”
PERFORMER “Nick Cave & The Bad Seeds”
INDEX 01 00:00:00
FILE “06. I Let Love In.wav” WAVE
TRACK 06 AUDIO
TITLE “I Let Love In”
PERFORMER “Nick Cave & The Bad Seeds”
INDEX 01 00:00:00
FILE “07. Thirsty Dog.wav” WAVE
TRACK 07 AUDIO
TITLE “Thirsty Dog”
PERFORMER “Nick Cave & The Bad Seeds”
INDEX 01 00:00:00
TRACK 08 AUDIO
TITLE “Ain’t Gonna Rain Anymore”
PERFORMER “Nick Cave & The Bad Seeds”
INDEX 00 03:47:02
FILE “08. Ain’t Gonna Rain Anymore.wav” WAVE
INDEX 01 00:00:00
FILE “09. Lay Me Low.wav” WAVE
TRACK 09 AUDIO
TITLE “Lay Me Low”
PERFORMER “Nick Cave & The Bad Seeds”
INDEX 01 00:00:00
FILE “10. Do You Love Me (Part 2).wav” WAVE
TRACK 10 AUDIO
TITLE “Do You Love Me? (Part 2)”
PERFORMER “Nick Cave & The Bad Seeds”
INDEX 01 00:00:00

Leave a Reply

Your email address will not be published. Required fields are marked *

This site uses Akismet to reduce spam. Learn how your comment data is processed.