Nick Cave & The Bad Seeds – Kicking Against The Pricks (Japanese Edition)




Artist: Nick Cave & The Bad Seeds
Year: 1986/1992
Genre: Rock
Notes: Discogs
Add. Notes: Japanese Edition
Cover incl.: Yes
Encoder: FLAC
Bitrate: ~800 kBit/s (44.1 kHz/16 Bit/s)
Log & Cue incl.: Yes
Size: 367,51 MB
Password: “slam” (without ” “)


All Downloads/Hosters are compatible

Download 1
Turbobit.net
Rapidgator.net
UploadEver.com
JustUpload.io
UsersDrive.com
Download 2
Turbobit.net
Rapidgator.net
UploadEver.com
JustUpload.io
UsersDrive.com
Download 3
Turbobit.net
Rapidgator.net
UploadEver.com
JustUpload.io
UsersDrive.com

Tracklist:

1 - Muddy Water - 5:15
2 - I'm Gonna Kill That Woman - 3:44
3 - Sleeping Annaleah - 3:18
4 - Long Black Veil - 3:46
5 - Hey Joe - 3:56
6 - The Singer - 3:09
7 - Black Betty - 2:33
8 - Running Scared - 2:07
9 - All Tomorrows Parties - 5:52
10 - By The Time I Get To Phoenix - 3:39
11 - The Hammer Song - 3:50
12 - Something's Gotten Hold Of My Heart - 3:44
13 - Jesus Met The Woman At The Well - 2:00
14 - The Carnival Is Over - 3:16

EAC-Log, CUE-Sheed & NFO:

Click to open spoiler
Exact Audio Copy V1.0 beta 3 from 29. August 2011

EAC extraction logfile from 26. March 2015, 21:16

Nick Cave & The Bad Seeds / Kicking Against The Pricks [1992, ALCB-650]

Used drive : ASUS DRW-22B3S Adapter: 3 ID: 1

Read mode : Secure
Utilize accurate stream : Yes
Defeat audio cache : Yes
Make use of C2 pointers : No

Read offset correction : 6
Overread into Lead-In and Lead-Out : No
Fill up missing offset samples with silence : Yes
Delete leading and trailing silent blocks : No
Null samples used in CRC calculations : Yes
Used interface : Native Win32 interface for Win NT & 2000
Gap handling : Appended to previous track

Used output format : User Defined Encoder
Selected bitrate : 768 kBit/s
Quality : High
Add ID3 tag : No
Command line compressor : C:\Program Files\Exact Audio Copy\FLAC\FLAC.EXE
Additional command line options : -V -8 -T “Genre=%genre%” -T “Artist=%artist%” -T “Title=%title%” -T “Album=%albumtitle%” -T “Date=%year%” -T “Tracknumber=%tracknr%” -T “Comment=%comment%” %source%

TOC of the extracted CD

Track | Start | Length | Start sector | End sector
———————————————————
1 | 0:00.00 | 5:16.32 | 0 | 23731
2 | 5:16.32 | 3:44.00 | 23732 | 40531
3 | 9:00.32 | 3:18.20 | 40532 | 55401
4 | 12:18.52 | 3:46.55 | 55402 | 72406
5 | 16:05.32 | 3:56.28 | 72407 | 90134
6 | 20:01.60 | 3:09.22 | 90135 | 104331
7 | 23:11.07 | 2:33.33 | 104332 | 115839
8 | 25:44.40 | 2:06.72 | 115840 | 125361
9 | 27:51.37 | 5:51.73 | 125362 | 151759
10 | 33:43.35 | 3:39.37 | 151760 | 168221
11 | 37:22.72 | 3:50.05 | 168222 | 185476
12 | 41:13.02 | 3:44.60 | 185477 | 202336
13 | 44:57.62 | 2:00.05 | 202337 | 211341
14 | 46:57.67 | 3:17.50 | 211342 | 226166

Track 1

Filename H:\g.y.m\Nick Cave & The Bad Seeds\1986 – Kicking Against The Pricks [1992, ALCB-650]\01. Muddy Water.wav

Pre-gap length 0:00:02.00

Peak level 78.8 %
Extraction speed 5.2 X
Track quality 100.0 %
Test CRC 475B1523
Copy CRC 475B1523
Cannot be verified as accurate (confidence 2) [CDB3DD7A], AccurateRip returned [92EB95D6] (AR v2)
Copy OK

Track 2

Filename H:\g.y.m\Nick Cave & The Bad Seeds\1986 – Kicking Against The Pricks [1992, ALCB-650]\02. I’m Gonna Kill That Woman.wav

Peak level 79.2 %
Extraction speed 5.6 X
Track quality 100.0 %
Test CRC 52A18DFF
Copy CRC 52A18DFF
Cannot be verified as accurate (confidence 2) [A13F56B3], AccurateRip returned [A148BE02] (AR v2)
Copy OK

Track 3

Filename H:\g.y.m\Nick Cave & The Bad Seeds\1986 – Kicking Against The Pricks [1992, ALCB-650]\03. Sleeping Annaleah.wav

Peak level 79.2 %
Extraction speed 6.0 X
Track quality 100.0 %
Test CRC D0B15B81
Copy CRC D0B15B81
Cannot be verified as accurate (confidence 2) [F56C3474], AccurateRip returned [1EAEFDEC] (AR v2)
Copy OK

Track 4

Filename H:\g.y.m\Nick Cave & The Bad Seeds\1986 – Kicking Against The Pricks [1992, ALCB-650]\04. Long Black Veil.wav

Peak level 75.4 %
Extraction speed 5.2 X
Track quality 99.9 %
Test CRC A96E704B
Copy CRC A96E704B
Cannot be verified as accurate (confidence 2) [A20D891B], AccurateRip returned [4D93F186] (AR v2)
Copy OK

Track 5

Filename H:\g.y.m\Nick Cave & The Bad Seeds\1986 – Kicking Against The Pricks [1992, ALCB-650]\05. Hey Joe.wav

Peak level 80.3 %
Extraction speed 5.7 X
Track quality 99.9 %
Test CRC 2AA44C70
Copy CRC 2AA44C70
Cannot be verified as accurate (confidence 2) [70E631A6], AccurateRip returned [57E3F16A] (AR v2)
Copy OK

Track 6

Filename H:\g.y.m\Nick Cave & The Bad Seeds\1986 – Kicking Against The Pricks [1992, ALCB-650]\06. The Singer.wav

Pre-gap length 0:00:02.52

Peak level 83.5 %
Extraction speed 7.0 X
Track quality 100.0 %
Test CRC FA26CB8E
Copy CRC FA26CB8E
Cannot be verified as accurate (confidence 2) [E15C0607], AccurateRip returned [6E1A6409] (AR v2)
Copy OK

Track 7

Filename H:\g.y.m\Nick Cave & The Bad Seeds\1986 – Kicking Against The Pricks [1992, ALCB-650]\07. Black Betty.wav

Peak level 82.6 %
Extraction speed 6.9 X
Track quality 100.0 %
Test CRC D3D952E7
Copy CRC D3D952E7
Cannot be verified as accurate (confidence 2) [C58A2D30], AccurateRip returned [91779D88] (AR v2)
Copy OK

Track 8

Filename H:\g.y.m\Nick Cave & The Bad Seeds\1986 – Kicking Against The Pricks [1992, ALCB-650]\08. Running Scared.wav

Peak level 80.1 %
Extraction speed 6.8 X
Track quality 100.0 %
Test CRC 0DC8F3BE
Copy CRC 0DC8F3BE
Cannot be verified as accurate (confidence 2) [6A592AE0], AccurateRip returned [4E6A9F3A] (AR v2)
Copy OK

Track 9

Filename H:\g.y.m\Nick Cave & The Bad Seeds\1986 – Kicking Against The Pricks [1992, ALCB-650]\09. All Tomorrows Parties.wav

Peak level 82.1 %
Extraction speed 8.5 X
Track quality 100.0 %
Test CRC 3B6922F3
Copy CRC 3B6922F3
Cannot be verified as accurate (confidence 2) [1DF0B8CD], AccurateRip returned [F1AFBE32] (AR v2)
Copy OK

Track 10

Filename H:\g.y.m\Nick Cave & The Bad Seeds\1986 – Kicking Against The Pricks [1992, ALCB-650]\10. By The Time I Get To Phoenix.wav

Peak level 80.8 %
Extraction speed 8.3 X
Track quality 100.0 %
Test CRC 74080786
Copy CRC 74080786
Cannot be verified as accurate (confidence 2) [34753A5B], AccurateRip returned [7B826739] (AR v2)
Copy OK

Track 11

Filename H:\g.y.m\Nick Cave & The Bad Seeds\1986 – Kicking Against The Pricks [1992, ALCB-650]\11. The Hammer Song.wav

Peak level 82.2 %
Extraction speed 7.1 X
Track quality 99.9 %
Test CRC 105EF998
Copy CRC 105EF998
Cannot be verified as accurate (confidence 2) [EB095348], AccurateRip returned [644FEA2B] (AR v2)
Copy OK

Track 12

Filename H:\g.y.m\Nick Cave & The Bad Seeds\1986 – Kicking Against The Pricks [1992, ALCB-650]\12. Something’s Gotten Hold Of My Heart.wav

Peak level 80.1 %
Extraction speed 8.8 X
Track quality 100.0 %
Test CRC 5639B5C0
Copy CRC 5639B5C0
Cannot be verified as accurate (confidence 2) [C512C28A], AccurateRip returned [21C11813] (AR v2)
Copy OK

Track 13

Filename H:\g.y.m\Nick Cave & The Bad Seeds\1986 – Kicking Against The Pricks [1992, ALCB-650]\13. Jesus Met The Woman At The Well.wav

Peak level 80.5 %
Extraction speed 8.1 X
Track quality 100.0 %
Test CRC ABC181CE
Copy CRC ABC181CE
Cannot be verified as accurate (confidence 2) [7BDA2B06], AccurateRip returned [F4FBDA9A] (AR v2)
Copy OK

Track 14

Filename H:\g.y.m\Nick Cave & The Bad Seeds\1986 – Kicking Against The Pricks [1992, ALCB-650]\14. The Carnival Is Over.wav

Peak level 81.1 %
Extraction speed 9.2 X
Track quality 100.0 %
Test CRC EF0F16A9
Copy CRC EF0F16A9
Cannot be verified as accurate (confidence 2) [945B032A], AccurateRip returned [FFC6E233] (AR v2)
Copy OK

No tracks could be verified as accurate
You may have a different pressing from the one(s) in the database

No errors occurred

End of status report

==== Log checksum CAFC669FA930C94FFC22B4F2E3EDF29C2D2256B023C72DFB241CB8684F61DB21 ====

REM GENRE “Alternative Rock”
REM DATE 1986
REM DISCID C60BC70E
REM COMMENT “ExactAudioCopy v1.0b3”
PERFORMER “Nick Cave & The Bad Seeds”
TITLE “Kicking Against The Pricks [1992, ALCB-650]”
FILE “01. Muddy Water.wav” WAVE
TRACK 01 AUDIO
TITLE “Muddy Water”
PERFORMER “Nick Cave & The Bad Seeds”
INDEX 01 00:00:00
FILE “02. I’m Gonna Kill That Woman.wav” WAVE
TRACK 02 AUDIO
TITLE “I’m Gonna Kill That Woman”
PERFORMER “Nick Cave & The Bad Seeds”
INDEX 01 00:00:00
FILE “03. Sleeping Annaleah.wav” WAVE
TRACK 03 AUDIO
TITLE “Sleeping Annaleah”
PERFORMER “Nick Cave & The Bad Seeds”
INDEX 01 00:00:00
FILE “04. Long Black Veil.wav” WAVE
TRACK 04 AUDIO
TITLE “Long Black Veil”
PERFORMER “Nick Cave & The Bad Seeds”
INDEX 01 00:00:00
FILE “05. Hey Joe.wav” WAVE
TRACK 05 AUDIO
TITLE “Hey Joe”
PERFORMER “Nick Cave & The Bad Seeds”
INDEX 01 00:00:00
TRACK 06 AUDIO
TITLE “The Singer”
PERFORMER “Nick Cave & The Bad Seeds”
INDEX 00 03:53:51
FILE “06. The Singer.wav” WAVE
INDEX 01 00:00:00
FILE “07. Black Betty.wav” WAVE
TRACK 07 AUDIO
TITLE “Black Betty”
PERFORMER “Nick Cave & The Bad Seeds”
INDEX 01 00:00:00
FILE “08. Running Scared.wav” WAVE
TRACK 08 AUDIO
TITLE “Running Scared”
PERFORMER “Nick Cave & The Bad Seeds”
INDEX 01 00:00:00
FILE “09. All Tomorrows Parties.wav” WAVE
TRACK 09 AUDIO
TITLE “All Tomorrows Parties”
PERFORMER “Nick Cave & The Bad Seeds”
INDEX 01 00:00:00
FILE “10. By The Time I Get To Phoenix.wav” WAVE
TRACK 10 AUDIO
TITLE “By The Time I Get To Phoenix”
PERFORMER “Nick Cave & The Bad Seeds”
INDEX 01 00:00:00
FILE “11. The Hammer Song.wav” WAVE
TRACK 11 AUDIO
TITLE “The Hammer Song”
PERFORMER “Nick Cave & The Bad Seeds”
INDEX 01 00:00:00
FILE “12. Something’s Gotten Hold Of My Heart.wav” WAVE
TRACK 12 AUDIO
TITLE “Something’s Gotten Hold Of My Heart”
PERFORMER “Nick Cave & The Bad Seeds”
INDEX 01 00:00:00
FILE “13. Jesus Met The Woman At The Well.wav” WAVE
TRACK 13 AUDIO
TITLE “Jesus Met The Woman At The Well”
PERFORMER “Nick Cave & The Bad Seeds”
INDEX 01 00:00:00
FILE “14. The Carnival Is Over.wav” WAVE
TRACK 14 AUDIO
TITLE “The Carnival Is Over”
PERFORMER “Nick Cave & The Bad Seeds”
INDEX 01 00:00:00

Leave a Reply

Your email address will not be published. Required fields are marked *

This site uses Akismet to reduce spam. Learn how your comment data is processed.