Nick Cave & The Bad Seeds – Henry’s Dream (Reissue)




Artist: Nick Cave & The Bad Seeds
Year: 1992/1996
Genre: Rock
Notes: Discogs
Add. Notes: Reissue
Cover incl.: Yes
Encoder: FLAC
Bitrate: ~800 kBit/s (44.1 kHz/16 Bit/s)
Log & Cue incl.: Yes
Size: 339,44 MB
Password: “slam” (without ” “)


All Downloads/Hosters are compatible

Download 1
Turbobit.net
KatFile.com
Rapidgator.net
Usersdrive.com
Download 2
Turbobit.net
KatFile.com
Rapidgator.net
Usersdrive.com

Tracklist:

1 - Papa Won't Leave You, Henry - 5:54
2 - I Had A Dream, Joe - 3:42
3 - Straight To You - 4:35
4 - Brother, My Cup Is Empty - 3:02
5 - Christina The Astonishing - 4:50
6 - When I First Came To Town - 5:21
7 - John Finn's Wife - 5:13
8 - Loom Of The Land - 5:07
9 - Jack The Ripper - 3:45

EAC-Log, CUE-Sheed & NFO:

Click to open spoiler
Exact Audio Copy V1.0 beta 3 from 29. August 2011

EAC extraction logfile from 14. September 2014, 17:39

Nick Cave & The Bad Seeds / Henry’s Dream [1996, 9016-2]

Used drive : ASUS DRW-22B3S Adapter: 3 ID: 1

Read mode : Secure
Utilize accurate stream : Yes
Defeat audio cache : Yes
Make use of C2 pointers : No

Read offset correction : 6
Overread into Lead-In and Lead-Out : No
Fill up missing offset samples with silence : Yes
Delete leading and trailing silent blocks : No
Null samples used in CRC calculations : Yes
Used interface : Native Win32 interface for Win NT & 2000
Gap handling : Appended to previous track

Used output format : User Defined Encoder
Selected bitrate : 768 kBit/s
Quality : High
Add ID3 tag : No
Command line compressor : C:\Program Files\Exact Audio Copy\FLAC\FLAC.EXE
Additional command line options : -V -8 -T “Genre=%genre%” -T “Artist=%artist%” -T “Title=%title%” -T “Album=%albumtitle%” -T “Date=%year%” -T “Tracknumber=%tracknr%” -T “Comment=%comment%” %source%

TOC of the extracted CD

Track | Start | Length | Start sector | End sector
———————————————————
1 | 0:00.32 | 5:54.65 | 32 | 26646
2 | 5:55.22 | 3:42.28 | 26647 | 43324
3 | 9:37.50 | 4:35.20 | 43325 | 63969
4 | 14:12.70 | 3:02.32 | 63970 | 77651
5 | 17:15.27 | 4:50.68 | 77652 | 99469
6 | 22:06.20 | 5:21.72 | 99470 | 123616
7 | 27:28.17 | 5:13.30 | 123617 | 147121
8 | 32:41.47 | 5:07.48 | 147122 | 170194
9 | 37:49.20 | 3:45.37 | 170195 | 187106

Track 1

Filename H:\g.y.m\Nick Cave & The Bad Seeds\1992 – Henry’s Dream [1996, 9016-2]\01. Papa Won’t Leave You, Henry.wav

Pre-gap length 0:00:02.32

Peak level 100.0 %
Extraction speed 3.2 X
Track quality 99.9 %
Test CRC AB0051AE
Copy CRC AB0051AE
Accurately ripped (confidence 2) [4CE0A246] (AR v1)
Copy OK

Track 2

Filename H:\g.y.m\Nick Cave & The Bad Seeds\1992 – Henry’s Dream [1996, 9016-2]\02. I Had A Dream, Joe.wav

Peak level 100.0 %
Extraction speed 3.9 X
Track quality 100.0 %
Test CRC 624810B2
Copy CRC 624810B2
Accurately ripped (confidence 2) [5E5A1BD9] (AR v1)
Copy OK

Track 3

Filename H:\g.y.m\Nick Cave & The Bad Seeds\1992 – Henry’s Dream [1996, 9016-2]\03. Straight To You.wav

Peak level 95.6 %
Extraction speed 4.4 X
Track quality 100.0 %
Test CRC 730E887B
Copy CRC 730E887B
Accurately ripped (confidence 2) [5D962335] (AR v1)
Copy OK

Track 4

Filename H:\g.y.m\Nick Cave & The Bad Seeds\1992 – Henry’s Dream [1996, 9016-2]\04. Brother, My Cup is Empty.wav

Peak level 100.0 %
Extraction speed 4.4 X
Track quality 100.0 %
Test CRC 99F35B19
Copy CRC 99F35B19
Accurately ripped (confidence 2) [88D5F2F3] (AR v1)
Copy OK

Track 5

Filename H:\g.y.m\Nick Cave & The Bad Seeds\1992 – Henry’s Dream [1996, 9016-2]\05. Christina The Astonishing.wav

Peak level 84.3 %
Extraction speed 5.0 X
Track quality 100.0 %
Test CRC 56E9A97D
Copy CRC 56E9A97D
Accurately ripped (confidence 2) [F082CB7C] (AR v1)
Copy OK

Track 6

Filename H:\g.y.m\Nick Cave & The Bad Seeds\1992 – Henry’s Dream [1996, 9016-2]\06. When I First Came To Town.wav

Pre-gap length 0:00:01.28

Peak level 100.0 %
Extraction speed 5.4 X
Track quality 100.0 %
Test CRC 5110139A
Copy CRC 5110139A
Accurately ripped (confidence 2) [A6D17656] (AR v1)
Copy OK

Track 7

Filename H:\g.y.m\Nick Cave & The Bad Seeds\1992 – Henry’s Dream [1996, 9016-2]\07. John Finns’ Wife.wav

Peak level 100.0 %
Extraction speed 4.8 X
Track quality 99.9 %
Test CRC D9666E02
Copy CRC D9666E02
Accurately ripped (confidence 2) [1EF9C121] (AR v1)
Copy OK

Track 8

Filename H:\g.y.m\Nick Cave & The Bad Seeds\1992 – Henry’s Dream [1996, 9016-2]\08. Loom Of The Land.wav

Peak level 100.0 %
Extraction speed 6.0 X
Track quality 100.0 %
Test CRC 7866DBC3
Copy CRC 7866DBC3
Accurately ripped (confidence 2) [0F98A3F3] (AR v1)
Copy OK

Track 9

Filename H:\g.y.m\Nick Cave & The Bad Seeds\1992 – Henry’s Dream [1996, 9016-2]\09. Jack The Ripper.wav

Peak level 100.0 %
Extraction speed 6.1 X
Track quality 100.0 %
Test CRC 0B150F0E
Copy CRC 0B150F0E
Accurately ripped (confidence 2) [899C504E] (AR v1)
Copy OK

All tracks accurately ripped

No errors occurred

End of status report

==== Log checksum A99D4DAFD70B05513FAD7E5EBBA34886DD0209C17BF48D32E705D689F439A12E ====

REM GENRE “Alternative rock”
REM DATE 1992
REM DISCID 7B09BE09
REM COMMENT “ExactAudioCopy v1.0b3”
PERFORMER “Nick Cave & The Bad Seeds”
TITLE “Henry’s Dream [1996, 9016-2]”
FILE “01. Papa Won’t Leave You, Henry.wav” WAVE
TRACK 01 AUDIO
TITLE “Papa Won’t Leave You, Henry”
PERFORMER “Nick Cave & The Bad Seeds”
PREGAP 00:00:32
INDEX 01 00:00:00
FILE “02. I Had A Dream, Joe.wav” WAVE
TRACK 02 AUDIO
TITLE “I Had A Dream, Joe”
PERFORMER “Nick Cave & The Bad Seeds”
INDEX 01 00:00:00
FILE “03. Straight To You.wav” WAVE
TRACK 03 AUDIO
TITLE “Straight To You”
PERFORMER “Nick Cave & The Bad Seeds”
INDEX 01 00:00:00
FILE “04. Brother, My Cup is Empty.wav” WAVE
TRACK 04 AUDIO
TITLE “Brother, My Cup is Empty”
PERFORMER “Nick Cave & The Bad Seeds”
INDEX 01 00:00:00
FILE “05. Christina The Astonishing.wav” WAVE
TRACK 05 AUDIO
TITLE “Christina The Astonishing”
PERFORMER “Nick Cave & The Bad Seeds”
INDEX 01 00:00:00
TRACK 06 AUDIO
TITLE “When I First Came To Town”
PERFORMER “Nick Cave & The Bad Seeds”
INDEX 00 04:49:40
FILE “06. When I First Came To Town.wav” WAVE
INDEX 01 00:00:00
FILE “07. John Finns’ Wife.wav” WAVE
TRACK 07 AUDIO
TITLE “John Finns’ Wife”
PERFORMER “Nick Cave & The Bad Seeds”
INDEX 01 00:00:00
FILE “08. Loom Of The Land.wav” WAVE
TRACK 08 AUDIO
TITLE “Loom Of The Land”
PERFORMER “Nick Cave & The Bad Seeds”
INDEX 01 00:00:00
FILE “09. Jack The Ripper.wav” WAVE
TRACK 09 AUDIO
TITLE “Jack The Ripper”
PERFORMER “Nick Cave & The Bad Seeds”
INDEX 01 00:00:00


Leave a Reply

Your email address will not be published. Required fields are marked *

This site uses Akismet to reduce spam. Learn how your comment data is processed.