Nick Cave & The Bad Seeds – Henry’s Dream (Japanese Edition)




Artist: Nick Cave & The Bad Seeds
Year: 1992
Genre: Rock
Notes: Discogs
Add. Notes: Japanese Edition
Cover incl.: Yes
Encoder: FLAC
Bitrate: ~1000 kBit/s (44.1 kHz/16 Bit/s)
Log & Cue incl.: Yes
Size: 404,25 MB
Password: “slam” (without ” “)


All Downloads/Hosters are compatible

Download 1
Turbobit.net
Rapidgator.net
UploadEver.com
JustUpload.io
UsersDrive.com
Download 2
Turbobit.net
Rapidgator.net
UploadEver.com
JustUpload.io
UsersDrive.com
Download 3
Turbobit.net
Rapidgator.net
UploadEver.com
JustUpload.io
UsersDrive.com

Tracklist:

1 - Papa Won't Leave You, Henry - 5:54
2 - I Had A Dream, Joe - 3:42
3 - Straight To You - 4:34
4 - Brother, My Cup Is Empty - 3:02
5 - Christina The Astonishing - 4:49
6 - When I First Came To Town - 5:21
7 - John Finns' Wife - 5:13
8 - Loom Of The Land - 5:07
9 - Jack The Ripper - 3:45

EAC-Log, CUE-Sheed & NFO:

Click to open spoiler
Exact Audio Copy V1.1 from 23. June 2015

EAC extraction logfile from 19. December 2015, 3:08

Nick Cave & The Bad Seeds / Henry’s Dream [ALCB-476]

Used drive : ASUS DRW-22B3S Adapter: 1 ID: 0

Read mode : Secure
Utilize accurate stream : Yes
Defeat audio cache : Yes
Make use of C2 pointers : No

Read offset correction : 6
Overread into Lead-In and Lead-Out : No
Fill up missing offset samples with silence : Yes
Delete leading and trailing silent blocks : No
Null samples used in CRC calculations : Yes
Used interface : Native Win32 interface for Win NT & 2000
Gap handling : Appended to previous track

Used output format : User Defined Encoder
Selected bitrate : 768 kBit/s
Quality : High
Add ID3 tag : No
Command line compressor : C:\Program Files\Exact Audio Copy\FLAC\FLAC.EXE
Additional command line options : -V -8 -T “Genre=%genre%” -T “Artist=%artist%” -T “Title=%title%” -T “Album=%albumtitle%” -T “Date=%year%” -T “Tracknumber=%tracknr%” -T “Comment=%comment%” %source%

TOC of the extracted CD

Track | Start | Length | Start sector | End sector
———————————————————
1 | 0:00.00 | 5:55.20 | 0 | 26644
2 | 5:55.20 | 3:42.42 | 26645 | 43336
3 | 9:37.62 | 4:35.00 | 43337 | 63961
4 | 14:12.62 | 3:02.38 | 63962 | 77649
5 | 17:15.25 | 4:51.07 | 77650 | 99481
6 | 22:06.32 | 5:21.43 | 99482 | 123599
7 | 27:28.00 | 5:13.45 | 123600 | 147119
8 | 32:41.45 | 5:07.45 | 147120 | 170189
9 | 37:49.15 | 3:46.60 | 170190 | 187199

Track 1

Filename H:\g.y.m\Nick Cave & The Bad Seeds\1992 – Henry’s Dream [ALCB-476]\01. Papa Won’t Leave You, Henry.wav

Pre-gap length 0:00:02.00

Peak level 100.0 %
Extraction speed 5.9 X
Track quality 100.0 %
Test CRC 57682344
Copy CRC 57682344
Accurately ripped (confidence 1) [29CB37E4] (AR v2)
Copy OK

Track 2

Filename H:\g.y.m\Nick Cave & The Bad Seeds\1992 – Henry’s Dream [ALCB-476]\02. I Had A Dream, Joe.wav

Peak level 100.0 %
Extraction speed 6.2 X
Track quality 100.0 %
Test CRC 25A344C7
Copy CRC 25A344C7
Accurately ripped (confidence 1) [82EA739F] (AR v2)
Copy OK

Track 3

Filename H:\g.y.m\Nick Cave & The Bad Seeds\1992 – Henry’s Dream [ALCB-476]\03. Straight To You.wav

Peak level 95.6 %
Extraction speed 6.9 X
Track quality 100.0 %
Test CRC 9C16A257
Copy CRC 9C16A257
Accurately ripped (confidence 1) [4838728F] (AR v2)
Copy OK

Track 4

Filename H:\g.y.m\Nick Cave & The Bad Seeds\1992 – Henry’s Dream [ALCB-476]\04. Brother, My Cup Is Empty.wav

Peak level 100.0 %
Extraction speed 6.8 X
Track quality 100.0 %
Test CRC 9C3F1E1A
Copy CRC 9C3F1E1A
Accurately ripped (confidence 1) [3D936073] (AR v2)
Copy OK

Track 5

Filename H:\g.y.m\Nick Cave & The Bad Seeds\1992 – Henry’s Dream [ALCB-476]\05. Christina The Astonishing.wav

Peak level 84.3 %
Extraction speed 7.7 X
Track quality 100.0 %
Test CRC 56F9E9C2
Copy CRC 56F9E9C2
Accurately ripped (confidence 1) [E1AC9A0B] (AR v2)
Copy OK

Track 6

Filename H:\g.y.m\Nick Cave & The Bad Seeds\1992 – Henry’s Dream [ALCB-476]\06. When I First Came To Town.wav

Pre-gap length 0:00:01.00

Peak level 100.0 %
Extraction speed 8.3 X
Track quality 100.0 %
Test CRC 802A2AEF
Copy CRC 802A2AEF
Accurately ripped (confidence 1) [AD57B145] (AR v2)
Copy OK

Track 7

Filename H:\g.y.m\Nick Cave & The Bad Seeds\1992 – Henry’s Dream [ALCB-476]\07. John Finn’s Wife.wav

Peak level 100.0 %
Extraction speed 8.8 X
Track quality 100.0 %
Test CRC 128A73FC
Copy CRC 128A73FC
Accurately ripped (confidence 1) [CE508927] (AR v2)
Copy OK

Track 8

Filename H:\g.y.m\Nick Cave & The Bad Seeds\1992 – Henry’s Dream [ALCB-476]\08. Loom Of The Land.wav

Peak level 100.0 %
Extraction speed 9.2 X
Track quality 100.0 %
Test CRC 2E058E80
Copy CRC 2E058E80
Accurately ripped (confidence 1) [449251B7] (AR v2)
Copy OK

Track 9

Filename H:\g.y.m\Nick Cave & The Bad Seeds\1992 – Henry’s Dream [ALCB-476]\09. Jack The Ripper.wav

Peak level 100.0 %
Extraction speed 9.2 X
Track quality 100.0 %
Test CRC 1225234F
Copy CRC 1225234F
Accurately ripped (confidence 1) [B967B808] (AR v2)
Copy OK

All tracks accurately ripped

No errors occurred

End of status report

==== Log checksum F541CA002197E010A1141FA32E25F4C07691D08F7FE53B14835BF96535DF02C7 ====

REM GENRE “Alternative Rock”
REM DATE 1992
REM DISCID 7B09C009
REM COMMENT “ExactAudioCopy v1.1”
PERFORMER “Nick Cave & The Bad Seeds”
TITLE “Henry’s Dream [ALCB-476]”
FILE “01. Papa Won’t Leave You, Henry.wav” WAVE
TRACK 01 AUDIO
TITLE “Papa Won’t Leave You, Henry”
PERFORMER “Nick Cave & The Bad Seeds”
INDEX 01 00:00:00
FILE “02. I Had A Dream, Joe.wav” WAVE
TRACK 02 AUDIO
TITLE “I Had A Dream, Joe”
PERFORMER “Nick Cave & The Bad Seeds”
INDEX 01 00:00:00
FILE “03. Straight To You.wav” WAVE
TRACK 03 AUDIO
TITLE “Straight To You”
PERFORMER “Nick Cave & The Bad Seeds”
INDEX 01 00:00:00
FILE “04. Brother, My Cup Is Empty.wav” WAVE
TRACK 04 AUDIO
TITLE “Brother, My Cup Is Empty”
PERFORMER “Nick Cave & The Bad Seeds”
INDEX 01 00:00:00
FILE “05. Christina The Astonishing.wav” WAVE
TRACK 05 AUDIO
TITLE “Christina The Astonishing”
PERFORMER “Nick Cave & The Bad Seeds”
INDEX 01 00:00:00
TRACK 06 AUDIO
TITLE “When I First Came To Town”
PERFORMER “Nick Cave & The Bad Seeds”
INDEX 00 04:50:07
FILE “06. When I First Came To Town.wav” WAVE
INDEX 01 00:00:00
FILE “07. John Finn’s Wife.wav” WAVE
TRACK 07 AUDIO
TITLE “John Finn’s Wife”
PERFORMER “Nick Cave & The Bad Seeds”
INDEX 01 00:00:00
FILE “08. Loom Of The Land.wav” WAVE
TRACK 08 AUDIO
TITLE “Loom Of The Land”
PERFORMER “Nick Cave & The Bad Seeds”
INDEX 01 00:00:00
FILE “09. Jack The Ripper.wav” WAVE
TRACK 09 AUDIO
TITLE “Jack The Ripper”
PERFORMER “Nick Cave & The Bad Seeds”
INDEX 01 00:00:00

Leave a Reply

Your email address will not be published. Required fields are marked *

This site uses Akismet to reduce spam. Learn how your comment data is processed.