Nick Cave & The Bad Seeds – From Her To Eternity (Japanese Edition)




Artist: Nick Cave & The Bad Seeds
Year: 1984/1996
Genre: Rock
Notes: Discogs
Add. Notes: Japanese Edition
Cover incl.: Yes
Encoder: FLAC
Bitrate: ~800 kBit/s (44.1 kHz/16 Bit/s)
Log & Cue incl.: Yes
Size: 413,28 MB
Password: “slam” (without ” “)


All Downloads/Hosters are compatible

Download 1
Turbobit.net
Rapidgator.net
UploadEver.com
JustUpload.io
UsersDrive.com
Download 2
Turbobit.net
Rapidgator.net
UploadEver.com
JustUpload.io
UsersDrive.com
Download 3
Turbobit.net
Rapidgator.net
UploadEver.com
JustUpload.io
UsersDrive.com

Tracklist:

1 - Avalanche - 5:13
2 - Cabin Fever! - 6:11
3 - Well Of Misery - 5:25
4 - From Her To Eternity - 5:33
5 - In The Ghetto - 4:06
6 - The Moon Is In The Gutter - 2:36
7 - Saint Huck - 7:22
8 - Wings Off Flies - 4:06
9 - A Box For Black Paul - 9:42
10 - From Her To Eternity - 4:35

EAC-Log, CUE-Sheed & NFO:

Click to open spoiler
Exact Audio Copy V1.1 from 23. June 2015

EAC extraction logfile from 9. January 2016, 1:21

Nick Cave & The Bad Seeds / From Her To Eternity [1996, PCCY-00915]

Used drive : ASUS DRW-22B3S Adapter: 1 ID: 0

Read mode : Secure
Utilize accurate stream : Yes
Defeat audio cache : Yes
Make use of C2 pointers : No

Read offset correction : 6
Overread into Lead-In and Lead-Out : No
Fill up missing offset samples with silence : Yes
Delete leading and trailing silent blocks : No
Null samples used in CRC calculations : Yes
Used interface : Native Win32 interface for Win NT & 2000
Gap handling : Appended to previous track

Used output format : User Defined Encoder
Selected bitrate : 768 kBit/s
Quality : High
Add ID3 tag : No
Command line compressor : C:\Program Files\Exact Audio Copy\FLAC\FLAC.EXE
Additional command line options : -V -8 -T “Genre=%genre%” -T “Artist=%artist%” -T “Title=%title%” -T “Album=%albumtitle%” -T “Date=%year%” -T “Tracknumber=%tracknr%” -T “Comment=%comment%” %source%

TOC of the extracted CD

Track | Start | Length | Start sector | End sector
———————————————————
1 | 0:00.00 | 5:13.27 | 0 | 23501
2 | 5:13.27 | 6:11.65 | 23502 | 51391
3 | 11:25.17 | 5:25.20 | 51392 | 75786
4 | 16:50.37 | 5:33.43 | 75787 | 100804
5 | 22:24.05 | 4:06.45 | 100805 | 119299
6 | 26:30.50 | 2:36.40 | 119300 | 131039
7 | 29:07.15 | 7:22.47 | 131040 | 164236
8 | 36:29.62 | 4:06.05 | 164237 | 182691
9 | 40:35.67 | 9:42.05 | 182692 | 226346
10 | 50:17.72 | 4:35.13 | 226347 | 246984

Track 1

Filename H:\g.y.m\Nick Cave & The Bad Seeds\1984 – From Her To Eternity [1996, PCCY-00915]\01. Avalanche.wav

Pre-gap length 0:00:02.00

Peak level 98.0 %
Extraction speed 1.5 X
Track quality 99.9 %
Test CRC 8A6BE127
Copy CRC 8A6BE127
Accurately ripped (confidence 1) [242CD7C8] (AR v2)
Copy OK

Track 2

Filename H:\g.y.m\Nick Cave & The Bad Seeds\1984 – From Her To Eternity [1996, PCCY-00915]\02. Cabin Fever!.wav

Pre-gap length 0:00:01.35

Peak level 87.5 %
Extraction speed 2.2 X
Track quality 100.0 %
Test CRC 016737F5
Copy CRC 016737F5
Cannot be verified as accurate (confidence 1) [60ED08DA], AccurateRip returned [580B46CB] (AR v2)
Copy OK

Track 3

Filename H:\g.y.m\Nick Cave & The Bad Seeds\1984 – From Her To Eternity [1996, PCCY-00915]\03. Well Of Misery.wav

Peak level 89.9 %
Extraction speed 2.4 X
Track quality 100.0 %
Test CRC 802B8BD8
Copy CRC 802B8BD8
Accurately ripped (confidence 1) [0F578199] (AR v2)
Copy OK

Track 4

Filename H:\g.y.m\Nick Cave & The Bad Seeds\1984 – From Her To Eternity [1996, PCCY-00915]\04. From Her To Eternity.wav

Pre-gap length 0:00:02.15

Peak level 89.6 %
Extraction speed 2.7 X
Track quality 100.0 %
Test CRC DB79B0DE
Copy CRC DB79B0DE
Accurately ripped (confidence 1) [1A27C4FD] (AR v2)
Copy OK

Track 5

Filename H:\g.y.m\Nick Cave & The Bad Seeds\1984 – From Her To Eternity [1996, PCCY-00915]\05. In The Ghetto.wav

Pre-gap length 0:00:01.05

Peak level 84.7 %
Extraction speed 2.7 X
Track quality 100.0 %
Test CRC 487E641F
Copy CRC 487E641F
Accurately ripped (confidence 1) [7D7D50F9] (AR v2)
Copy OK

Track 6

Filename H:\g.y.m\Nick Cave & The Bad Seeds\1984 – From Her To Eternity [1996, PCCY-00915]\06. The Moon Is In The Gutter.wav

Pre-gap length 0:00:01.70

Peak level 80.4 %
Extraction speed 2.7 X
Track quality 100.0 %
Test CRC 28E07D94
Copy CRC 28E07D94
Accurately ripped (confidence 1) [14A231FD] (AR v2)
Copy OK

Track 7

Filename H:\g.y.m\Nick Cave & The Bad Seeds\1984 – From Her To Eternity [1996, PCCY-00915]\07. Saint Huck.wav

Peak level 89.7 %
Extraction speed 3.2 X
Track quality 100.0 %
Test CRC A4486823
Copy CRC A4486823
Accurately ripped (confidence 1) [C8E3025E] (AR v2)
Copy OK

Track 8

Filename H:\g.y.m\Nick Cave & The Bad Seeds\1984 – From Her To Eternity [1996, PCCY-00915]\08. Wings Off Flies.wav

Pre-gap length 0:00:02.42

Peak level 91.9 %
Extraction speed 3.2 X
Track quality 100.0 %
Test CRC 63BA8954
Copy CRC 63BA8954
Accurately ripped (confidence 1) [1A41B1BD] (AR v2)
Copy OK

Track 9

Filename H:\g.y.m\Nick Cave & The Bad Seeds\1984 – From Her To Eternity [1996, PCCY-00915]\09. A Box For Black Paul.wav

Pre-gap length 0:00:01.55

Peak level 63.3 %
Extraction speed 0.7 X
Track quality 100.0 %
Test CRC DDF5B861
Copy CRC DDF5B861
Accurately ripped (confidence 1) [F1B2BDD9] (AR v2)
Copy OK

Track 10

Filename H:\g.y.m\Nick Cave & The Bad Seeds\1984 – From Her To Eternity [1996, PCCY-00915]\10. From Her To Eternity (1987).wav

Pre-gap length 0:00:02.35

Peak level 93.3 %
Extraction speed 3.6 X
Track quality 100.0 %
Test CRC 7CBAD0A2
Copy CRC 7CBAD0A2
Accurately ripped (confidence 1) [BBAAC788] (AR v2)
Copy OK

9 track(s) accurately ripped
1 track(s) could not be verified as accurate

Some tracks could not be verified as accurate

No errors occurred

End of status report

==== Log checksum F0B7B3BFB1C7FC9ADDAF3C546DEDAC0773B20F4815F30B4B7BEDDF8F61E265F6 ====

REM GENRE “Alternative Rock”
REM DATE 1984
REM DISCID 820CDD0A
REM COMMENT “ExactAudioCopy v1.1”
PERFORMER “Nick Cave & The Bad Seeds”
TITLE “From Her To Eternity [1996, PCCY-00915]”
FILE “01. Avalanche.wav” WAVE
TRACK 01 AUDIO
TITLE “Avalanche”
PERFORMER “Nick Cave & The Bad Seeds”
INDEX 01 00:00:00
TRACK 02 AUDIO
TITLE “Cabin Fever!”
PERFORMER “Nick Cave & The Bad Seeds”
INDEX 00 05:11:67
FILE “02. Cabin Fever!.wav” WAVE
INDEX 01 00:00:00
FILE “03. Well Of Misery.wav” WAVE
TRACK 03 AUDIO
TITLE “Well Of Misery”
PERFORMER “Nick Cave & The Bad Seeds”
INDEX 01 00:00:00
TRACK 04 AUDIO
TITLE “From Her To Eternity”
PERFORMER “Nick Cave & The Bad Seeds”
INDEX 00 05:23:05
FILE “04. From Her To Eternity.wav” WAVE
INDEX 01 00:00:00
TRACK 05 AUDIO
TITLE “In The Ghetto”
PERFORMER “Nick Cave & The Bad Seeds”
INDEX 00 05:32:38
FILE “05. In The Ghetto.wav” WAVE
INDEX 01 00:00:00
TRACK 06 AUDIO
TITLE “The Moon Is In The Gutter”
PERFORMER “Nick Cave & The Bad Seeds”
INDEX 00 04:04:50
FILE “06. The Moon Is In The Gutter.wav” WAVE
INDEX 01 00:00:00
FILE “07. Saint Huck.wav” WAVE
TRACK 07 AUDIO
TITLE “Saint Huck”
PERFORMER “Nick Cave & The Bad Seeds”
INDEX 01 00:00:00
TRACK 08 AUDIO
TITLE “Wings Off Flies”
PERFORMER “Nick Cave & The Bad Seeds”
INDEX 00 07:20:05
FILE “08. Wings Off Flies.wav” WAVE
INDEX 01 00:00:00
TRACK 09 AUDIO
TITLE “A Box For Black Paul”
PERFORMER “Nick Cave & The Bad Seeds”
INDEX 00 04:04:25
FILE “09. A Box For Black Paul.wav” WAVE
INDEX 01 00:00:00
TRACK 10 AUDIO
TITLE “From Her To Eternity (1987)”
PERFORMER “Nick Cave & The Bad Seeds”
INDEX 00 09:39:45
FILE “10. From Her To Eternity (1987).wav” WAVE
INDEX 01 00:00:00

Leave a Reply

Your email address will not be published. Required fields are marked *

This site uses Akismet to reduce spam. Learn how your comment data is processed.