Nick Cave & The Bad Seeds – Dig, Lazarus, Dig!!! (Limited Edition)




Artist: Nick Cave & The Bad Seeds
Year: 2008
Genre: Rock
Notes: Discogs
Add. Notes: Limited Edition
Cover incl.: Yes
Encoder: FLAC
Bitrate: ~900 kBit/s (44.1 kHz/16 Bit/s)
Log & Cue incl.: Yes
Size: 498,24 MB
Password: “slam” (without ” “)


All Downloads/Hosters are compatible

Download 1
Turbobit.net
Rapidgator.net
UploadByte.com
UploadEver.com
JustUpload.io
Download 2
Turbobit.net
Rapidgator.net
UploadByte.com
UploadEver.com
JustUpload.io
Download 3
Turbobit.net
Rapidgator.net
UploadByte.com
UploadEver.com
JustUpload.io

Tracklist:

1 - Dig, Lazarus, Dig!!! - 4:11
2 - Today's Lesson - 4:41
3 - Moonland - 3:53
4 - Night Of The Lotus Eaters - 4:53
5 - Albert Goes West - 3:32
6 - We Call Upon The Author - 5:11
7 - Hold On To Yourself - 5:50
8 - Lie Down Here (& Be My Girl) - 4:57
9 - Jesus Of The Moon - 3:22
10 - Midnight Man - 5:06
11 - More News From Nowhere - 7:58

EAC-Log, CUE-Sheed & NFO:

Click to open spoiler
Exact Audio Copy V1.0 beta 3 from 29. August 2011

EAC extraction logfile from 24. September 2014, 3:29

Nick Cave & The Bad Seeds / Dig, Lazarus, Dig!!! [LCDSTUMM277]

Used drive : ASUS DRW-22B3S Adapter: 3 ID: 1

Read mode : Secure
Utilize accurate stream : Yes
Defeat audio cache : Yes
Make use of C2 pointers : No

Read offset correction : 6
Overread into Lead-In and Lead-Out : No
Fill up missing offset samples with silence : Yes
Delete leading and trailing silent blocks : No
Null samples used in CRC calculations : Yes
Used interface : Native Win32 interface for Win NT & 2000
Gap handling : Appended to previous track

Used output format : User Defined Encoder
Selected bitrate : 768 kBit/s
Quality : High
Add ID3 tag : No
Command line compressor : C:\Program Files\Exact Audio Copy\FLAC\FLAC.EXE
Additional command line options : -V -8 -T “Genre=%genre%” -T “Artist=%artist%” -T “Title=%title%” -T “Album=%albumtitle%” -T “Date=%year%” -T “Tracknumber=%tracknr%” -T “Comment=%comment%” %source%

TOC of the extracted CD

Track | Start | Length | Start sector | End sector
———————————————————
1 | 0:01.00 | 4:11.61 | 75 | 18960
2 | 4:12.61 | 4:41.05 | 18961 | 40040
3 | 8:53.66 | 3:53.48 | 40041 | 57563
4 | 12:47.39 | 4:53.25 | 57564 | 79563
5 | 17:40.64 | 3:32.27 | 79564 | 95490
6 | 21:13.16 | 5:11.38 | 95491 | 118853
7 | 26:24.54 | 5:50.69 | 118854 | 145172
8 | 32:15.48 | 4:57.61 | 145173 | 167508
9 | 37:13.34 | 3:22.22 | 167509 | 182680
10 | 40:35.56 | 5:06.58 | 182681 | 205688
11 | 45:42.39 | 7:58.21 | 205689 | 241559

Track 1

Filename H:\g.y.m\Nick Cave & The Bad Seeds\2008 – Dig, Lazarus, Dig!!! [LCDSTUMM277]\01. Dig, Lazarus, Dig!!!.wav

Pre-gap length 0:00:03.00

Peak level 100.0 %
Extraction speed 1.8 X
Track quality 100.0 %
Test CRC BC91515B
Copy CRC BC91515B
Accurately ripped (confidence 174) [0FA4EFB0] (AR v2)
Copy OK

Track 2

Filename H:\g.y.m\Nick Cave & The Bad Seeds\2008 – Dig, Lazarus, Dig!!! [LCDSTUMM277]\02. Today’s Lesson.wav

Peak level 99.8 %
Extraction speed 2.1 X
Track quality 100.0 %
Test CRC 4D109CE7
Copy CRC 4D109CE7
Accurately ripped (confidence 174) [4A979808] (AR v2)
Copy OK

Track 3

Filename H:\g.y.m\Nick Cave & The Bad Seeds\2008 – Dig, Lazarus, Dig!!! [LCDSTUMM277]\03. Moonland.wav

Peak level 100.0 %
Extraction speed 2.2 X
Track quality 100.0 %
Test CRC BC82D1DE
Copy CRC BC82D1DE
Accurately ripped (confidence 173) [3CA7047F] (AR v2)
Copy OK

Track 4

Filename H:\g.y.m\Nick Cave & The Bad Seeds\2008 – Dig, Lazarus, Dig!!! [LCDSTUMM277]\04. Night Of The Lotus Eaters.wav

Peak level 97.9 %
Extraction speed 2.5 X
Track quality 100.0 %
Test CRC ADEFA2EA
Copy CRC ADEFA2EA
Accurately ripped (confidence 174) [C2701BBD] (AR v2)
Copy OK

Track 5

Filename H:\g.y.m\Nick Cave & The Bad Seeds\2008 – Dig, Lazarus, Dig!!! [LCDSTUMM277]\05. Albert Goes West.wav

Peak level 100.0 %
Extraction speed 2.5 X
Track quality 100.0 %
Test CRC 1756D459
Copy CRC 1756D459
Accurately ripped (confidence 174) [7A2099E6] (AR v2)
Copy OK

Track 6

Filename H:\g.y.m\Nick Cave & The Bad Seeds\2008 – Dig, Lazarus, Dig!!! [LCDSTUMM277]\06. We Call Upon The Author.wav

Peak level 100.0 %
Extraction speed 2.9 X
Track quality 100.0 %
Test CRC 209FCD02
Copy CRC 209FCD02
Accurately ripped (confidence 174) [D81DF64D] (AR v2)
Copy OK

Track 7

Filename H:\g.y.m\Nick Cave & The Bad Seeds\2008 – Dig, Lazarus, Dig!!! [LCDSTUMM277]\07. Hold On To Yourself.wav

Peak level 99.7 %
Extraction speed 2.4 X
Track quality 99.9 %
Test CRC FA494948
Copy CRC FA494948
Accurately ripped (confidence 173) [FDB7632E] (AR v2)
Copy OK

Track 8

Filename H:\g.y.m\Nick Cave & The Bad Seeds\2008 – Dig, Lazarus, Dig!!! [LCDSTUMM277]\08. Lie Down Here (& Be My Girl).wav

Peak level 99.9 %
Extraction speed 2.4 X
Track quality 99.9 %
Test CRC 7D9300CE
Copy CRC 7D9300CE
Accurately ripped (confidence 174) [10786714] (AR v2)
Copy OK

Track 9

Filename H:\g.y.m\Nick Cave & The Bad Seeds\2008 – Dig, Lazarus, Dig!!! [LCDSTUMM277]\09. Jesus Of The Moon.wav

Peak level 99.4 %
Extraction speed 3.1 X
Track quality 100.0 %
Test CRC 2D815123
Copy CRC 2D815123
Accurately ripped (confidence 175) [3F44AD81] (AR v2)
Copy OK

Track 10

Filename H:\g.y.m\Nick Cave & The Bad Seeds\2008 – Dig, Lazarus, Dig!!! [LCDSTUMM277]\10. Midnight Man.wav

Peak level 100.0 %
Extraction speed 2.7 X
Track quality 99.9 %
Test CRC 466450A2
Copy CRC 466450A2
Accurately ripped (confidence 173) [93EB2746] (AR v2)
Copy OK

Track 11

Filename H:\g.y.m\Nick Cave & The Bad Seeds\2008 – Dig, Lazarus, Dig!!! [LCDSTUMM277]\11. More News From Nowhere.wav

Peak level 97.8 %
Extraction speed 3.8 X
Track quality 100.0 %
Test CRC 570EFCD7
Copy CRC 570EFCD7
Accurately ripped (confidence 173) [124BBE17] (AR v2)
Copy OK

All tracks accurately ripped

No errors occurred

End of status report

==== Log checksum 69FC24DDDDABCED1F435ED7FF33B4C0EB7B774054BD875E3D51A11B3407E8D0A ====

REM GENRE “Alternative Rock”
REM DATE 2008
REM DISCID 9E0C930B
REM COMMENT “ExactAudioCopy v1.0b3”
PERFORMER “Nick Cave & The Bad Seeds”
TITLE “Dig, Lazarus, Dig!!! [LCDSTUMM277]”
FILE “01. Dig, Lazarus, Dig!!!.wav” WAVE
TRACK 01 AUDIO
TITLE “Dig, Lazarus, Dig!!!”
PERFORMER “Nick Cave & The Bad Seeds”
PREGAP 00:01:00
INDEX 01 00:00:00
FILE “02. Today’s Lesson.wav” WAVE
TRACK 02 AUDIO
TITLE “Today’s Lesson”
PERFORMER “Nick Cave & The Bad Seeds”
INDEX 01 00:00:00
FILE “03. Moonland.wav” WAVE
TRACK 03 AUDIO
TITLE “Moonland”
PERFORMER “Nick Cave & The Bad Seeds”
INDEX 01 00:00:00
FILE “04. Night Of The Lotus Eaters.wav” WAVE
TRACK 04 AUDIO
TITLE “Night Of The Lotus Eaters”
PERFORMER “Nick Cave & The Bad Seeds”
INDEX 01 00:00:00
FILE “05. Albert Goes West.wav” WAVE
TRACK 05 AUDIO
TITLE “Albert Goes West”
PERFORMER “Nick Cave & The Bad Seeds”
INDEX 01 00:00:00
FILE “06. We Call Upon The Author.wav” WAVE
TRACK 06 AUDIO
TITLE “We Call Upon The Author”
PERFORMER “Nick Cave & The Bad Seeds”
INDEX 01 00:00:00
FILE “07. Hold On To Yourself.wav” WAVE
TRACK 07 AUDIO
TITLE “Hold On To Yourself”
PERFORMER “Nick Cave & The Bad Seeds”
INDEX 01 00:00:00
FILE “08. Lie Down Here (& Be My Girl).wav” WAVE
TRACK 08 AUDIO
TITLE “Lie Down Here (& Be My Girl)”
PERFORMER “Nick Cave & The Bad Seeds”
INDEX 01 00:00:00
FILE “09. Jesus Of The Moon.wav” WAVE
TRACK 09 AUDIO
TITLE “Jesus Of The Moon”
PERFORMER “Nick Cave & The Bad Seeds”
INDEX 01 00:00:00
FILE “10. Midnight Man.wav” WAVE
TRACK 10 AUDIO
TITLE “Midnight Man”
PERFORMER “Nick Cave & The Bad Seeds”
INDEX 01 00:00:00
FILE “11. More News From Nowhere.wav” WAVE
TRACK 11 AUDIO
TITLE “More News From Nowhere”
PERFORMER “Nick Cave & The Bad Seeds”
INDEX 01 00:00:00

Leave a Reply

Your email address will not be published. Required fields are marked *

This site uses Akismet to reduce spam. Learn how your comment data is processed.