Nick Cave & The Bad Seeds – Abattoir Blues-The Lyre Of Orpheus




Artist: Nick Cave & The Bad Seeds
Year: 2004
Genre: Rock
Notes: Discogs
Add. Notes:
Encoder: FLAC
Bitrate: ~900 kBit/s (44.1 kHz/16 Bit/s)
Bin/Cue incl.: Yes
Size: 627 MB
Password: “slam” (without ” “)


http://www.share-online.biz/dl/VD3BLTRP6DX
http://www.share-online.biz/dl/QG0ALTRPFP

https://rapidgator.net/file/7f6f3d9c006f8832d4b2370795ce51b7
https://rapidgator.net/file/d7aa1c8e33e38d7c5b8e75f910e8c786

https://uploadbyte.com/7zpd7h9ia2o1
https://uploadbyte.com/eq1zoa2wnjsk

https://justupload.io/pk82bv1xa9pl
https://justupload.io/vhgxeoyshu1j

https://uploadever.com/1t7e2bhlb6as
https://uploadever.com/z2c5119ovhas

Tracklist:

Abattoir Blues
1-1 - Get Ready For Love - 5:05
1-2 - Cannibal's Hymn - 4:54
1-3 - Hiding All Away - 6:31
1-4 - Messiah Ward - 5:14
1-5 - There She Goes, My Beautiful 
World - 5:17
1-6 - Nature Boy - 4:54
1-7 - Abattoir Blues - 3:58
1-8 - Let The Bells Ring - 4:26
1-9 - Fable Of The Brown Ape - 2:45
The Lyre Of Orpheus
2-1 - The Lyre Of Orpheus - 5:36
2-2 - Breathless - 3:13
2-3 - Babe, You Turn Me On - 4:21
2-4 - Easy Money - 6:43
2-5 - Supernaturally - 4:37
2-6 - Spell - 4:25
2-7 - Carry Me - 3:37
2-8 - O Children - 6:51

EAC-Log, CUE-Sheed & NFO:

Click to open spoiler
Exact Audio Copy V1.0 beta 3 from 29. August 2011

EAC extraction logfile from 11. October 2014, 1:57

Nick Cave & The Bad Seeds / Abattoir Blues [CDStumm233]

Used drive : ASUS DRW-22B3S Adapter: 3 ID: 1

Read mode : Secure
Utilize accurate stream : Yes
Defeat audio cache : Yes
Make use of C2 pointers : No

Read offset correction : 6
Overread into Lead-In and Lead-Out : No
Fill up missing offset samples with silence : Yes
Delete leading and trailing silent blocks : No
Null samples used in CRC calculations : Yes
Used interface : Native Win32 interface for Win NT & 2000
Gap handling : Appended to previous track

Used output format : User Defined Encoder
Selected bitrate : 768 kBit/s
Quality : High
Add ID3 tag : No
Command line compressor : C:\Program Files\Exact Audio Copy\FLAC\FLAC.EXE
Additional command line options : -V -8 -T “Genre=%genre%” -T “Artist=%artist%” -T “Title=%title%” -T “Album=%albumtitle%” -T “Date=%year%” -T “Tracknumber=%tracknr%” -T “Comment=%comment%” %source%

TOC of the extracted CD

Track | Start | Length | Start sector | End sector
———————————————————
1 | 0:00.00 | 5:05.12 | 0 | 22886
2 | 5:05.12 | 4:54.11 | 22887 | 44947
3 | 9:59.23 | 6:31.70 | 44948 | 74342
4 | 16:31.18 | 5:14.74 | 74343 | 97966
5 | 21:46.17 | 5:17.02 | 97967 | 121743
6 | 27:03.19 | 4:54.30 | 121744 | 143823
7 | 31:57.49 | 3:58.47 | 143824 | 161720
8 | 35:56.21 | 4:26.28 | 161721 | 181698
9 | 40:22.49 | 2:43.07 | 181699 | 193930
10 | 45:37.56 | 0:11.03 | 205331 | 206158

Track 1

Filename H:\g.y.m\Nick Cave & The Bad Seeds\2004 – Abattoir Blues – The Lyre Of Orpheus [CDStumm233]\CD 1 – Abattoir Blues\01. Get Ready For Love.wav

Pre-gap length 0:00:02.00

Peak level 98.9 %
Extraction speed 1.9 X
Track quality 100.0 %
Test CRC 7B344358
Copy CRC 7B344358
Accurately ripped (confidence 200) [6850CF9F] (AR v2)
Copy OK

Track 2

Filename H:\g.y.m\Nick Cave & The Bad Seeds\2004 – Abattoir Blues – The Lyre Of Orpheus [CDStumm233]\CD 1 – Abattoir Blues\02. Cannibal’s Hymn.wav

Peak level 100.0 %
Extraction speed 1.7 X
Track quality 99.9 %
Test CRC EA8FC6AC
Copy CRC EA8FC6AC
Accurately ripped (confidence 200) [CF5740EF] (AR v2)
Copy OK

Track 3

Filename H:\g.y.m\Nick Cave & The Bad Seeds\2004 – Abattoir Blues – The Lyre Of Orpheus [CDStumm233]\CD 1 – Abattoir Blues\03. Hiding All Away.wav

Peak level 98.9 %
Extraction speed 2.5 X
Track quality 100.0 %
Test CRC 0ED930E0
Copy CRC 0ED930E0
Accurately ripped (confidence 200) [46F175C4] (AR v2)
Copy OK

Track 4

Filename H:\g.y.m\Nick Cave & The Bad Seeds\2004 – Abattoir Blues – The Lyre Of Orpheus [CDStumm233]\CD 1 – Abattoir Blues\04. Messiah Ward.wav

Peak level 98.9 %
Extraction speed 2.7 X
Track quality 100.0 %
Test CRC DE308BB7
Copy CRC DE308BB7
Accurately ripped (confidence 200) [E04F63BB] (AR v2)
Copy OK

Track 5

Filename H:\g.y.m\Nick Cave & The Bad Seeds\2004 – Abattoir Blues – The Lyre Of Orpheus [CDStumm233]\CD 1 – Abattoir Blues\05. There She Goes, My Beautiful World.wav

Peak level 98.9 %
Extraction speed 2.3 X
Track quality 99.9 %
Test CRC 83767E22
Copy CRC 83767E22
Accurately ripped (confidence 200) [CB947D13] (AR v2)
Copy OK

Track 6

Filename H:\g.y.m\Nick Cave & The Bad Seeds\2004 – Abattoir Blues – The Lyre Of Orpheus [CDStumm233]\CD 1 – Abattoir Blues\06. Nature Boy.wav

Peak level 98.9 %
Extraction speed 3.0 X
Track quality 100.0 %
Test CRC C5300D85
Copy CRC C5300D85
Accurately ripped (confidence 200) [AB371AE0] (AR v2)
Copy OK

Track 7

Filename H:\g.y.m\Nick Cave & The Bad Seeds\2004 – Abattoir Blues – The Lyre Of Orpheus [CDStumm233]\CD 1 – Abattoir Blues\07. Abattoir Blues.wav

Peak level 98.9 %
Extraction speed 3.1 X
Track quality 100.0 %
Test CRC 8D5FE1DB
Copy CRC 8D5FE1DB
Accurately ripped (confidence 200) [547B4734] (AR v2)
Copy OK

Track 8

Filename H:\g.y.m\Nick Cave & The Bad Seeds\2004 – Abattoir Blues – The Lyre Of Orpheus [CDStumm233]\CD 1 – Abattoir Blues\08. Let The Bells Ring.wav

Peak level 98.9 %
Extraction speed 3.3 X
Track quality 100.0 %
Test CRC 88FC542E
Copy CRC 88FC542E
Accurately ripped (confidence 200) [C06F0345] (AR v2)
Copy OK

Track 9

Filename H:\g.y.m\Nick Cave & The Bad Seeds\2004 – Abattoir Blues – The Lyre Of Orpheus [CDStumm233]\CD 1 – Abattoir Blues\09. Fable Of The Brown Ape.wav

Peak level 98.9 %
Extraction speed 3.1 X
Track quality 100.0 %
Test CRC D39ECA17
Copy CRC D39ECA17
Accurately ripped (confidence 200) [D4973567] (AR v2)
Copy OK

All tracks accurately ripped

No errors occurred

End of status report

==== Log checksum D291376D1272019B3B972CB6AFE96A266B45F06CE07DC7C01C2C844400249014 ====

Exact Audio Copy V1.0 beta 3 from 29. August 2011

EAC extraction logfile from 11. October 2014, 3:02

Nick Cave & The Bad Seeds / The Lyre Of Orpheus [CDStumm233]

Used drive : ASUS DRW-22B3S Adapter: 3 ID: 1

Read mode : Secure
Utilize accurate stream : Yes
Defeat audio cache : Yes
Make use of C2 pointers : No

Read offset correction : 6
Overread into Lead-In and Lead-Out : No
Fill up missing offset samples with silence : Yes
Delete leading and trailing silent blocks : No
Null samples used in CRC calculations : Yes
Used interface : Native Win32 interface for Win NT & 2000
Gap handling : Appended to previous track

Used output format : User Defined Encoder
Selected bitrate : 768 kBit/s
Quality : High
Add ID3 tag : No
Command line compressor : C:\Program Files\Exact Audio Copy\FLAC\FLAC.EXE
Additional command line options : -V -8 -T “Genre=%genre%” -T “Artist=%artist%” -T “Title=%title%” -T “Album=%albumtitle%” -T “Date=%year%” -T “Tracknumber=%tracknr%” -T “Comment=%comment%” %source%

TOC of the extracted CD

Track | Start | Length | Start sector | End sector
———————————————————
1 | 0:00.00 | 5:36.58 | 0 | 25257
2 | 5:36.58 | 3:13.66 | 25258 | 39798
3 | 8:50.49 | 4:21.32 | 39799 | 59405
4 | 13:12.06 | 6:43.30 | 59406 | 89660
5 | 19:55.36 | 4:37.19 | 89661 | 110454
6 | 24:32.55 | 4:25.36 | 110455 | 130365
7 | 28:58.16 | 3:37.28 | 130366 | 146668
8 | 32:35.44 | 6:49.39 | 146669 | 177382
9 | 41:57.08 | 0:06.47 | 188783 | 189279

Track 1

Filename H:\g.y.m\Nick Cave & The Bad Seeds\2004 – Abattoir Blues – The Lyre Of Orpheus [CDStumm233]\CD 2 – The Lyre Of Orpheus\01. The Lyre Of Orpheus.wav

Pre-gap length 0:00:02.00

Peak level 98.8 %
Extraction speed 1.9 X
Track quality 100.0 %
Test CRC 8660A945
Copy CRC 8660A945
Accurately ripped (confidence 200) [13D7F04D] (AR v2)
Copy OK

Track 2

Filename H:\g.y.m\Nick Cave & The Bad Seeds\2004 – Abattoir Blues – The Lyre Of Orpheus [CDStumm233]\CD 2 – The Lyre Of Orpheus\02. Breathless.wav

Pre-gap length 0:00:03.25

Peak level 98.8 %
Extraction speed 1.4 X
Track quality 99.9 %
Test CRC 22C8CC76
Copy CRC 22C8CC76
Accurately ripped (confidence 200) [C539E711] (AR v2)
Copy OK

Track 3

Filename H:\g.y.m\Nick Cave & The Bad Seeds\2004 – Abattoir Blues – The Lyre Of Orpheus [CDStumm233]\CD 2 – The Lyre Of Orpheus\03. Babe, You Turn Me On.wav

Pre-gap length 0:00:00.20

Peak level 98.8 %
Extraction speed 2.3 X
Track quality 100.0 %
Test CRC ED72D9F0
Copy CRC ED72D9F0
Accurately ripped (confidence 200) [0426F3C6] (AR v2)
Copy OK

Track 4

Filename H:\g.y.m\Nick Cave & The Bad Seeds\2004 – Abattoir Blues – The Lyre Of Orpheus [CDStumm233]\CD 2 – The Lyre Of Orpheus\04. Easy Money.wav

Peak level 98.9 %
Extraction speed 2.2 X
Track quality 99.9 %
Test CRC DF04D916
Copy CRC DF04D916
Accurately ripped (confidence 200) [1DF0E471] (AR v2)
Copy OK

Track 5

Filename H:\g.y.m\Nick Cave & The Bad Seeds\2004 – Abattoir Blues – The Lyre Of Orpheus [CDStumm233]\CD 2 – The Lyre Of Orpheus\05. Supernaturally.wav

Pre-gap length 0:00:03.03

Peak level 98.8 %
Extraction speed 2.7 X
Track quality 100.0 %
Test CRC 559BB6AC
Copy CRC 559BB6AC
Accurately ripped (confidence 200) [A9A2F327] (AR v2)
Copy OK

Track 6

Filename H:\g.y.m\Nick Cave & The Bad Seeds\2004 – Abattoir Blues – The Lyre Of Orpheus [CDStumm233]\CD 2 – The Lyre Of Orpheus\06. Spell.wav

Peak level 98.8 %
Extraction speed 2.9 X
Track quality 100.0 %
Test CRC 09661E49
Copy CRC 09661E49
Accurately ripped (confidence 200) [414D8217] (AR v2)
Copy OK

Track 7

Filename H:\g.y.m\Nick Cave & The Bad Seeds\2004 – Abattoir Blues – The Lyre Of Orpheus [CDStumm233]\CD 2 – The Lyre Of Orpheus\07. Carry Me.wav

Peak level 98.8 %
Extraction speed 2.9 X
Track quality 100.0 %
Test CRC 722860EC
Copy CRC 722860EC
Accurately ripped (confidence 200) [04813A32] (AR v2)
Copy OK

Track 8

Filename H:\g.y.m\Nick Cave & The Bad Seeds\2004 – Abattoir Blues – The Lyre Of Orpheus [CDStumm233]\CD 2 – The Lyre Of Orpheus\08. O Children.wav

Peak level 98.8 %
Extraction speed 3.4 X
Track quality 100.0 %
Test CRC AA22DA38
Copy CRC AA22DA38
Accurately ripped (confidence 200) [AA04D748] (AR v2)
Copy OK

All tracks accurately ripped

No errors occurred

End of status report

==== Log checksum D2EB2ECD5F9DF673D1791DAFF153877A88D847446B1743A5B7CF18E39825988E ====

REM GENRE “Alternative rock”
REM DATE 2004
REM DISCID 870ABC0A
REM COMMENT “ExactAudioCopy v1.0b3”
PERFORMER “Nick Cave & The Bad Seeds”
TITLE “Abattoir Blues [CDStumm233]”
FILE “01. Get Ready For Love.wav” WAVE
TRACK 01 AUDIO
TITLE “Get Ready For Love”
PERFORMER “Nick Cave & The Bad Seeds”
INDEX 01 00:00:00
FILE “02. Cannibal’s Hymn.wav” WAVE
TRACK 02 AUDIO
TITLE “Cannibal’s Hymn”
PERFORMER “Nick Cave & The Bad Seeds”
INDEX 01 00:00:00
FILE “03. Hiding All Away.wav” WAVE
TRACK 03 AUDIO
TITLE “Hiding All Away”
PERFORMER “Nick Cave & The Bad Seeds”
INDEX 01 00:00:00
FILE “04. Messiah Ward.wav” WAVE
TRACK 04 AUDIO
TITLE “Messiah Ward”
PERFORMER “Nick Cave & The Bad Seeds”
INDEX 01 00:00:00
FILE “05. There She Goes, My Beautiful World.wav” WAVE
TRACK 05 AUDIO
TITLE “There She Goes, My Beautiful World”
PERFORMER “Nick Cave & The Bad Seeds”
INDEX 01 00:00:00
FILE “06. Nature Boy.wav” WAVE
TRACK 06 AUDIO
TITLE “Nature Boy”
PERFORMER “Nick Cave & The Bad Seeds”
INDEX 01 00:00:00
FILE “07. Abattoir Blues.wav” WAVE
TRACK 07 AUDIO
TITLE “Abattoir Blues”
PERFORMER “Nick Cave & The Bad Seeds”
INDEX 01 00:00:00
FILE “08. Let The Bells Ring.wav” WAVE
TRACK 08 AUDIO
TITLE “Let The Bells Ring”
PERFORMER “Nick Cave & The Bad Seeds”
INDEX 01 00:00:00
FILE “09. Fable Of The Brown Ape.wav” WAVE
TRACK 09 AUDIO
TITLE “Fable Of The Brown Ape”
PERFORMER “Nick Cave & The Bad Seeds”
INDEX 01 00:00:00
TRACK 10 MODEx/2xxx
TITLE “(Data Track)”
PERFORMER “Nick Cave & The Bad Seeds”
INDEX 00 02:43:07

REM GENRE “Alternative rock”
REM DATE 2004
REM DISCID 8309DB09
REM COMMENT “ExactAudioCopy v1.0b3”
PERFORMER “Nick Cave & The Bad Seeds”
TITLE “The Lyre Of Orpheus [CDStumm233]”
FILE “01. The Lyre Of Orpheus.wav” WAVE
TRACK 01 AUDIO
TITLE “The Lyre Of Orpheus”
PERFORMER “Nick Cave & The Bad Seeds”
INDEX 01 00:00:00
TRACK 02 AUDIO
TITLE “Breathless”
PERFORMER “Nick Cave & The Bad Seeds”
INDEX 00 05:33:33
FILE “02. Breathless.wav” WAVE
INDEX 01 00:00:00
TRACK 03 AUDIO
TITLE “Babe, You Turn Me On”
PERFORMER “Nick Cave & The Bad Seeds”
INDEX 00 03:13:46
FILE “03. Babe, You Turn Me On.wav” WAVE
INDEX 01 00:00:00
FILE “04. Easy Money.wav” WAVE
TRACK 04 AUDIO
TITLE “Easy Money”
PERFORMER “Nick Cave & The Bad Seeds”
INDEX 01 00:00:00
TRACK 05 AUDIO
TITLE “Supernaturally”
PERFORMER “Nick Cave & The Bad Seeds”
INDEX 00 06:40:27
FILE “05. Supernaturally.wav” WAVE
INDEX 01 00:00:00
FILE “06. Spell.wav” WAVE
TRACK 06 AUDIO
TITLE “Spell”
PERFORMER “Nick Cave & The Bad Seeds”
INDEX 01 00:00:00
FILE “07. Carry Me.wav” WAVE
TRACK 07 AUDIO
TITLE “Carry Me”
PERFORMER “Nick Cave & The Bad Seeds”
INDEX 01 00:00:00
FILE “08. O Children.wav” WAVE
TRACK 08 AUDIO
TITLE “O Children”
PERFORMER “Nick Cave & The Bad Seeds”
INDEX 01 00:00:00

Leave a Reply

Your email address will not be published. Required fields are marked *

This site uses Akismet to reduce spam. Learn how your comment data is processed.