New Radicals – Maybe You’ve Been Brainwashed Too




No Cover available


Artist: New Radicals
Year: 1998
Genre: Rock
Notes: Discogs
Add. Notes:
Watch Songs on: YouTube
Cover incl.: Yes
Encoder: APE
Bitrate: ~1000 kBit/s (44.1 kHz/16 Bit/s)
Log & Cue incl.: Yes/Yes
Size: 379,8 MB
Password: “slam” (without ” “)


All Downloads/Hosters are compatible

Download 1
KatFile.com
Turbobit.net
Rapidgator.net
FileFactory.com
Download 2
KatFile.com
Turbobit.net
Rapidgator.net
FileFactory.com

Tracklist:

1 Mother We Just Can't Get Enough 5:46
2 You Get What You Give 5:02
3 I Hope I Didn't Just Give Away The Ending 6:36
4 I Don't Wanna Die Anymore 4:16
5 Jehovah Made This Whole Joint For You 4:11
6 Someday We'll Know 3:37
7 Maybe You've Been Brainwashed Too 5:20
8 In Need Of A Miracle 3:43
9 Gotta Stay High 3:05
10 Technicolor Lover 3:43
11 Flowers 3:51
12 Crying Like A Church On Monday 5:02

EAC-Log, CUE-Sheed & NFO:

Click to open spoiler
Exact Audio Copy V0.99 prebeta 4 from 23. January 2008

Отчёт EAC об извлечении, выполненном 17. мая 2008, 1:18

New Radicals / Maybe You’ve Been Brainwashed Too

Дисковод: PLEXTOR DVDR PX-740A Adapter: 1 ID: 1

Режим чтения : Достоверность
Использование точного потока : Да
Отключение кэша аудио : Да
Использование указателей C2 : Нет

Коррекция смещения при чтении : 618
Способность читать области Lead-in и Lead-out : Нет
Заполнение пропущенных сэмплов тишиной : Да
Удаление блоков с тишиной в начале и конце : Нет
При вычислениях CRC использовались нулевые сэмплы : Да
Интерфейс : Встроенный Win32-интерфейс для Win NT/2000

Выходной формат : Внутренние WAV-операции
Формат сэмплов : 44.100 Гц; 16 бит; стерео

TOC извлечённого CD

Трек | Старт | Длительность | Начальный сектор | Конечный сектор
———————————————————————
1 | 0:00.00 | 5:47.32 | 0 | 26056
2 | 5:47.32 | 5:04.04 | 26057 | 48860
3 | 10:51.36 | 6:39.07 | 48861 | 78792
4 | 17:30.43 | 4:18.27 | 78793 | 98169
5 | 21:48.70 | 4:13.65 | 98170 | 117209
6 | 26:02.60 | 3:39.47 | 117210 | 133681
7 | 29:42.32 | 5:22.67 | 133682 | 157898
8 | 35:05.24 | 3:45.12 | 157899 | 174785
9 | 38:50.36 | 3:05.35 | 174786 | 188695
10 | 41:55.71 | 3:45.50 | 188696 | 205620
11 | 45:41.46 | 3:53.62 | 205621 | 223157
12 | 49:35.33 | 5:02.64 | 223158 | 245871

Характеристики диапазона извлечения и сообщения об ошибках

Выбранный диапазон

Имя файла P:\torrents.ru\my torrents\upload\New Radicals – Maybe You’ve Been Brainwashed Too\New Radicals – Maybe You’ve Been Brainwashed Too.wav

Пиковый уровень 98.8 %
Качество диапазона 100.0 %
CRC копии D423C2E8
Копирование… OK

Ошибок не произошло

Конец отчёта

REM GENRE Rock
REM DATE 1998
REM DISCID 9D0CCE0C
REM COMMENT “ExactAudioCopy v0.99pb4”
PERFORMER “New Radicals”
TITLE “Maybe You’ve Been Brainwashed Too”
FILE “New Radicals – Maybe You’ve Been Brainwashed Too.wav” WAVE
TRACK 01 AUDIO
TITLE “Mother We Just Can’t Get Enough”
PERFORMER “New Radicals”
INDEX 01 00:00:00
TRACK 02 AUDIO
TITLE “You Get What You Give”
PERFORMER “New Radicals”
FLAGS DCP
INDEX 00 05:45:32
INDEX 01 05:47:32
TRACK 03 AUDIO
TITLE “I Hope I Didn’t Just Give Away The Ending”
PERFORMER “New Radicals”
FLAGS DCP
INDEX 00 10:49:36
INDEX 01 10:51:36
TRACK 04 AUDIO
TITLE “I Don’t Wanna Die Anymore”
PERFORMER “New Radicals”
FLAGS DCP
INDEX 00 17:28:43
INDEX 01 17:30:43
TRACK 05 AUDIO
TITLE “Jehovah Made This Whole Joint For You”
PERFORMER “New Radicals”
FLAGS DCP
INDEX 00 21:46:70
INDEX 01 21:48:70
TRACK 06 AUDIO
TITLE “Someday We’ll Know”
PERFORMER “New Radicals”
FLAGS DCP
INDEX 00 26:00:60
INDEX 01 26:02:60
TRACK 07 AUDIO
TITLE “Maybe You’ve Been Brainwashed Too”
PERFORMER “New Radicals”
FLAGS DCP
INDEX 00 29:40:32
INDEX 01 29:42:32
TRACK 08 AUDIO
TITLE “In Need Of A Miracle”
PERFORMER “New Radicals”
FLAGS DCP
INDEX 00 35:03:24
INDEX 01 35:05:24
TRACK 09 AUDIO
TITLE “Gotta Stay High”
PERFORMER “New Radicals”
FLAGS DCP
INDEX 00 38:48:36
INDEX 01 38:50:36
TRACK 10 AUDIO
TITLE “Technicolor Lover”
PERFORMER “New Radicals”
FLAGS DCP
INDEX 00 41:53:71
INDEX 01 41:55:71
TRACK 11 AUDIO
TITLE “Flowers”
PERFORMER “New Radicals”
FLAGS DCP
INDEX 00 45:39:46
INDEX 01 45:41:46
TRACK 12 AUDIO
TITLE “Crying Like A Church On Monday”
PERFORMER “New Radicals”
FLAGS DCP
INDEX 00 49:33:33
INDEX 01 49:35:33


0

Publication author

offline 4 days

Chaos

3
Comments: 4Publics: 3565Registration: 02-02-2019
Spread the Download

Leave a Reply

Your email address will not be published. Required fields are marked *

Enter the text from the image below
 

This site uses Akismet to reduce spam. Learn how your comment data is processed.