New Radicals – Maybe You’ve Been Brainwashed Too (Japanese Edition)




No Cover available


Artist: New Radicals
Year: 1998
Genre: Rock
Notes: Discogs
Add. Notes: Japanese Edition
Watch Songs on: YouTube
Cover incl.: Yes
Encoder: FLAC
Bitrate: ~1000 kBit/s (44.1 kHz/16 Bit/s)
Log & Cue incl.: Yes/Yes
Size: 473,92 MB
Password: “slam” (without ” “)


All Downloads/Hosters are compatible

Download 1
KatFile.com
Turbobit.net
Rapidgator.net
FileFactory.com
Download 2
KatFile.com
Turbobit.net
Rapidgator.net
FileFactory.com

Tracklist:

1 Mother We Just Can't Get Enough 
2 You Get What You Give 
3 I Hope I Didn't Just Give Away The Ending 
4 I Don't Wanna Die Anymore 
5 Jehovah Made This Whole Joint For You 
6 Someday We'll Know 
7 Maybe You've Been Brainwashed Too 
8 In Need Of A Miracle 
9 Gotta Stay High 
10 Technicolor Lover 
11 Flowers 
12 Crying Like A Church On Monday 

Japan Bonus Track:
13 To Think I Thought

EAC-Log, CUE-Sheed & NFO:

Click to open spoiler
Exact Audio Copy V1.3 from 2. September 2016

EAC extraction logfile from 18. April 2018, 9:40

New Radicals / Maybe You’ve Been Brainwashed Too

Used drive : ASUS DRW-24B1ST Adapter: 1 ID: 1

Read mode : Secure
Utilize accurate stream : Yes
Defeat audio cache : Yes
Make use of C2 pointers : No

Read offset correction : 6
Overread into Lead-In and Lead-Out : No
Fill up missing offset samples with silence : Yes
Delete leading and trailing silent blocks : No
Null samples used in CRC calculations : Yes
Used interface : Native Win32 interface for Win NT & 2000

Used output format : User Defined Encoder
Selected bitrate : 1024 kBit/s
Quality : High
Add ID3 tag : No
Command line compressor : C:\Program Files (x86)\Exact Audio Copy\Flac\flac.exe
Additional command line options : -V -8 -T “Genre=%genre%” -T “Artist=%artist%” -T “Title=%title%” -T “Album=%albumtitle%” -T “Date=%year%” -T “Tracknumber=%tracknr%” -T “Comment=%comment%” %source%

TOC of the extracted CD

Track | Start | Length | Start sector | End sector
———————————————————
1 | 0:00.37 | 5:46.05 | 37 | 25991
2 | 5:46.42 | 5:01.65 | 25992 | 48631
3 | 10:48.32 | 6:36.70 | 48632 | 78401
4 | 17:25.27 | 4:16.50 | 78402 | 97651
5 | 21:42.02 | 4:11.48 | 97652 | 116524
6 | 25:53.50 | 3:37.35 | 116525 | 132834
7 | 29:31.10 | 5:20.65 | 132835 | 156899
8 | 34:52.00 | 3:43.10 | 156900 | 173634
9 | 38:35.10 | 3:06.17 | 173635 | 187601
10 | 41:41.27 | 3:43.28 | 187602 | 204354
11 | 45:24.55 | 3:51.60 | 204355 | 221739
12 | 49:16.40 | 5:05.17 | 221740 | 244631
13 | 54:21.57 | 2:45.70 | 244632 | 257076

Range status and errors

Selected range

Filename E:\Torrent\Ginger Devil\New Radicals – Maybe You’ve Been Brainwashed Too (1998) (MVCE-24131, Japan)\New Radicals – Maybe You’ve Been Brainwashed Too.wav

Peak level 98.8 %
Extraction speed 5.7 X
Range quality 100.0 %
Test CRC FE3166FB
Copy CRC FE3166FB
Copy OK

No errors occurred

AccurateRip summary

Track 1 accurately ripped (confidence 1) [11CD22FA] (AR v2)
Track 2 accurately ripped (confidence 1) [45E60003] (AR v2)
Track 3 accurately ripped (confidence 1) [0EDD80C8] (AR v2)
Track 4 accurately ripped (confidence 1) [4E2F49FD] (AR v2)
Track 5 accurately ripped (confidence 1) [7B6704D5] (AR v2)
Track 6 accurately ripped (confidence 1) [B5F408FB] (AR v2)
Track 7 accurately ripped (confidence 1) [09FF6D5E] (AR v2)
Track 8 accurately ripped (confidence 1) [309C8D9B] (AR v2)
Track 9 accurately ripped (confidence 1) [618FC1A6] (AR v2)
Track 10 accurately ripped (confidence 1) [454C012E] (AR v2)
Track 11 accurately ripped (confidence 1) [7541B70E] (AR v2)
Track 12 accurately ripped (confidence 1) [55B9B3D9] (AR v2)
Track 13 accurately ripped (confidence 1) [5CDB6F47] (AR v2)

All tracks accurately ripped

End of status report

==== Log checksum 708A8D0209FC73C6991A72DCFB90DCC2EEDFB1CE90B0A9488628B203F8A621B2 ====

REM GENRE Rock
REM DATE 1998
REM DISCID AF0D630D
REM COMMENT “ExactAudioCopy v1.3”
CATALOG 4988067037701
PERFORMER “New Radicals”
TITLE “Maybe You’ve Been Brainwashed Too”
REM COMPOSER “New Radicals”
FILE “New Radicals – Maybe You’ve Been Brainwashed Too.flac” WAVE
TRACK 01 AUDIO
TITLE “Mother We Just Can’t Get Enough”
PERFORMER “New Radicals”
REM COMPOSER “New Radicals”
INDEX 00 00:00:00
INDEX 01 00:00:37
TRACK 02 AUDIO
TITLE “You Get What You Give”
PERFORMER “New Radicals”
REM COMPOSER “New Radicals”
INDEX 01 05:46:42
TRACK 03 AUDIO
TITLE “I Hope I Didn’t Just Give Away The Ending”
PERFORMER “New Radicals”
REM COMPOSER “New Radicals”
INDEX 00 10:46:51
INDEX 01 10:48:32
TRACK 04 AUDIO
TITLE “I Don’t Wanna Die Anymore”
PERFORMER “New Radicals”
REM COMPOSER “New Radicals”
INDEX 00 17:25:03
INDEX 01 17:25:27
TRACK 05 AUDIO
TITLE “Jehovah Made This Whole Joint For You”
PERFORMER “New Radicals”
REM COMPOSER “New Radicals”
INDEX 01 21:42:02
TRACK 06 AUDIO
TITLE “Someday We’ll Know”
PERFORMER “New Radicals”
REM COMPOSER “New Radicals”
INDEX 00 25:51:73
INDEX 01 25:53:50
TRACK 07 AUDIO
TITLE “Maybe You’ve Been Brainwashed Too”
PERFORMER “New Radicals”
REM COMPOSER “New Radicals”
INDEX 00 29:31:01
INDEX 01 29:31:10
TRACK 08 AUDIO
TITLE “In Need Of A Miracle”
PERFORMER “New Radicals”
REM COMPOSER “New Radicals”
INDEX 00 34:50:46
INDEX 01 34:52:00
TRACK 09 AUDIO
TITLE “Gotta Stay High”
PERFORMER “New Radicals”
REM COMPOSER “New Radicals”
INDEX 00 38:34:46
INDEX 01 38:35:10
TRACK 10 AUDIO
TITLE “Technicolor Lover”
PERFORMER “New Radicals”
REM COMPOSER “New Radicals”
INDEX 01 41:41:27
TRACK 11 AUDIO
TITLE “Flowers”
PERFORMER “New Radicals”
REM COMPOSER “New Radicals”
INDEX 00 45:23:41
INDEX 01 45:24:55
TRACK 12 AUDIO
TITLE “Crying Like A Church On Monday”
PERFORMER “New Radicals”
REM COMPOSER “New Radicals”
INDEX 00 49:15:66
INDEX 01 49:16:40
TRACK 13 AUDIO
TITLE “To Think I Thought (Bonus track)”
PERFORMER “New Radicals”
REM COMPOSER “New Radicals”
INDEX 00 54:19:21
INDEX 01 54:21:57


Leave a Reply

Your email address will not be published. Required fields are marked *

Enter the text from the image below
 

This site uses Akismet to reduce spam. Learn how your comment data is processed.