Neil Young – Mirror Ball




Artist: Neil Young
Year: 1995
Genre: Rock
Notes: Discogs
Add. Notes:
Cover incl.: Yes
Encoder: FLAC
Bitrate: ~900 kBit/s (44.1 kHz/16 Bit/s)
Log & Cue incl.: Yes
Size: 365,93 MB
Password: “slam” (without ” “)


All Downloads/Hosters are compatible

Download 1
Turbobit.net
NitroFlare.com
KatFile.com
Rapidgator.net
Download 2
Turbobit.net
NitroFlare.com
KatFile.com
Rapidgator.net

Tracklist:

1 - Song X - 4:41
2 - Act Of Love - 4:55
3 - I'm The Ocean - 7:06
4 - Big Green Country - 5:08
5 - Truth Be Known - 4:39
6 - Downtown - 5:11
7 - What Happened Yesterday - 0:46
8 - Peace And Love - 7:02
9 - Throw Your Hatred Down - 5:46
10 - Scenery - 8:50
11 - Fallen Angel - 1:15

EAC-Log, CUE-Sheed & NFO:

Click to open spoiler
Exact Audio Copy V0.99 prebeta 4 from 23. January 2008

EAC extraction logfile from 19. April 2008, 14:00

Neil Young / Mirror Ball

Used drive : TOSHIBA ODD-DVD SD-R6372 Adapter: 1 ID: 0

Read mode : Secure
Utilize accurate stream : Yes
Defeat audio cache : Yes
Make use of C2 pointers : No

Read offset correction : 116
Overread into Lead-In and Lead-Out : No
Fill up missing offset samples with silence : Yes
Delete leading and trailing silent blocks : No
Null samples used in CRC calculations : Yes
Used interface : Native Win32 interface for Win NT & 2000
Gap handling : Appended to previous track

Used output format : User Defined Encoder
Selected bitrate : 768 kBit/s
Quality : High
Add ID3 tag : No
Command line compressor : C:\Program Files\FLAC\flac.exe
Additional command line options : -V -8 -T “artist=%a” -T “title=%t” -T “album=%g” -T “date=%y” -T “tracknumber=%n” %s

TOC of the extracted CD

Track | Start | Length | Start sector | End sector
———————————————————
1 | 0:00.32 | 4:40.38 | 32 | 21069
2 | 4:40.70 | 4:54.52 | 21070 | 43171
3 | 9:35.47 | 7:05.68 | 43172 | 75114
4 | 16:41.40 | 5:08.22 | 75115 | 98236
5 | 21:49.62 | 4:39.15 | 98237 | 119176
6 | 26:29.02 | 5:10.60 | 119177 | 142486
7 | 31:39.62 | 0:46.08 | 142487 | 145944
8 | 32:25.70 | 7:02.17 | 145945 | 177611
9 | 39:28.12 | 5:45.73 | 177612 | 203559
10 | 45:14.10 | 8:50.47 | 203560 | 243356
11 | 54:04.57 | 1:15.00 | 243357 | 248981

Track 1

Filename C:\Hi there RIAA, What’s up IFPI\Neil Young – Mirror Ball\01 – Song X.wav

Pre-gap length 0:00:02.32

Peak level 90.8 %
Track quality 100.0 %
Test CRC 5CDAC03B
Copy CRC 5CDAC03B
Accurately ripped (confidence 60) [B3A02AEF]
Copy OK

Track 2

Filename C:\Hi there RIAA, What’s up IFPI\Neil Young – Mirror Ball\02 – Act Of Love.wav

Pre-gap length 0:00:00.02

Peak level 91.1 %
Track quality 100.0 %
Test CRC 6199EFAF
Copy CRC 6199EFAF
Accurately ripped (confidence 58) [BFBEFA2F]
Copy OK

Track 3

Filename C:\Hi there RIAA, What’s up IFPI\Neil Young – Mirror Ball\03 – I’m The Ocean.wav

Pre-gap length 0:00:00.66

Peak level 96.4 %
Track quality 100.0 %
Test CRC F8DBDFD2
Copy CRC F8DBDFD2
Accurately ripped (confidence 60) [CA136D7E]
Copy OK

Track 4

Filename C:\Hi there RIAA, What’s up IFPI\Neil Young – Mirror Ball\04 – Big Green Country.wav

Pre-gap length 0:00:01.09

Peak level 93.7 %
Track quality 100.0 %
Test CRC 7A3BB8B5
Copy CRC 7A3BB8B5
Accurately ripped (confidence 57) [DFF8B77E]
Copy OK

Track 5

Filename C:\Hi there RIAA, What’s up IFPI\Neil Young – Mirror Ball\05 – Truth Be Known.wav

Pre-gap length 0:00:00.03

Peak level 95.0 %
Track quality 100.0 %
Test CRC 589884C1
Copy CRC 589884C1
Accurately ripped (confidence 56) [4878E208]
Copy OK

Track 6

Filename C:\Hi there RIAA, What’s up IFPI\Neil Young – Mirror Ball\06 – Downtown.wav

Pre-gap length 0:00:02.52

Peak level 94.8 %
Track quality 99.9 %
Test CRC E20A0459
Copy CRC E20A0459
Accurately ripped (confidence 58) [A147240C]
Copy OK

Track 7

Filename C:\Hi there RIAA, What’s up IFPI\Neil Young – Mirror Ball\07 – What Happened Yesterday.wav

Pre-gap length 0:00:01.64

Peak level 48.1 %
Track quality 100.0 %
Test CRC 7755F435
Copy CRC 7755F435
Accurately ripped (confidence 59) [68539110]
Copy OK

Track 8

Filename C:\Hi there RIAA, What’s up IFPI\Neil Young – Mirror Ball\08 – Peace And Love.wav

Peak level 91.1 %
Track quality 100.0 %
Test CRC 37E46D35
Copy CRC 37E46D35
Accurately ripped (confidence 56) [CB675528]
Copy OK

Track 9

Filename C:\Hi there RIAA, What’s up IFPI\Neil Young – Mirror Ball\09 – Throw Your Hatred Down.wav

Peak level 96.5 %
Track quality 100.0 %
Test CRC 7E549F05
Copy CRC 7E549F05
Accurately ripped (confidence 56) [AAAED3F2]
Copy OK

Track 10

Filename C:\Hi there RIAA, What’s up IFPI\Neil Young – Mirror Ball\10 – Scenery.wav

Pre-gap length 0:00:01.65

Peak level 88.2 %
Track quality 99.9 %
Test CRC 2D63905D
Copy CRC 2D63905D
Accurately ripped (confidence 53) [2C021D4A]
Copy OK

Track 11

Filename C:\Hi there RIAA, What’s up IFPI\Neil Young – Mirror Ball\11 – Fallen Angel.wav

Peak level 45.7 %
Track quality 100.0 %
Test CRC 6B95E920
Copy CRC 6B95E920
Accurately ripped (confidence 52) [9DB323F1]
Copy OK

All tracks accurately ripped

No errors occurred

End of status report

REM DATE 1995
REM DISCID 860CF70B
REM COMMENT “ExactAudioCopy v0.99pb4”
PERFORMER “Neil Young”
TITLE “Mirror Ball”
FILE “01 – Song X.wav” WAVE
TRACK 01 AUDIO
TITLE “Song X”
PERFORMER “Neil Young”
PREGAP 00:00:32
INDEX 01 00:00:00
TRACK 02 AUDIO
TITLE “Act Of Love”
PERFORMER “Neil Young”
INDEX 00 04:40:36
FILE “02 – Act Of Love.wav” WAVE
INDEX 01 00:00:00
TRACK 03 AUDIO
TITLE “I’m The Ocean”
PERFORMER “Neil Young”
INDEX 00 04:53:61
FILE “03 – I’m The Ocean.wav” WAVE
INDEX 01 00:00:00
TRACK 04 AUDIO
TITLE “Big Green Country”
PERFORMER “Neil Young”
INDEX 00 07:04:59
FILE “04 – Big Green Country.wav” WAVE
INDEX 01 00:00:00
TRACK 05 AUDIO
TITLE “Truth Be Known”
PERFORMER “Neil Young”
INDEX 00 05:08:19
FILE “05 – Truth Be Known.wav” WAVE
INDEX 01 00:00:00
TRACK 06 AUDIO
TITLE “Downtown”
PERFORMER “Neil Young”
INDEX 00 04:36:38
FILE “06 – Downtown.wav” WAVE
INDEX 01 00:00:00
TRACK 07 AUDIO
TITLE “What Happened Yesterday”
PERFORMER “Neil Young”
INDEX 00 05:08:71
FILE “07 – What Happened Yesterday.wav” WAVE
INDEX 01 00:00:00
FILE “08 – Peace And Love.wav” WAVE
TRACK 08 AUDIO
TITLE “Peace And Love”
PERFORMER “Neil Young”
INDEX 01 00:00:00
FILE “09 – Throw Your Hatred Down.wav” WAVE
TRACK 09 AUDIO
TITLE “Throw Your Hatred Down”
PERFORMER “Neil Young”
INDEX 01 00:00:00
TRACK 10 AUDIO
TITLE “Scenery”
PERFORMER “Neil Young”
INDEX 00 05:44:08
FILE “10 – Scenery.wav” WAVE
INDEX 01 00:00:00
FILE “11 – Fallen Angel.wav” WAVE
TRACK 11 AUDIO
TITLE “Fallen Angel”
PERFORMER “Neil Young”
INDEX 01 00:00:00


Leave a Reply

Your email address will not be published. Required fields are marked *

This site uses Akismet to reduce spam. Learn how your comment data is processed.