Nazareth – The Singles (Remastered)




Artist: Nazareth
Year: 2012
Genre: Rock
Notes: Discogs
Add. Notes: Remastered
Cover incl.: Yes
Encoder: FLAC
Bitrate: ~1000 kBit/s (44.1 kHz/16 Bit/s)
Log & Cue incl.: Yes/Yes
Size: 1094,6 MB
Password: “slam” (without ” “)


All Downloads/Hosters are compatible

Download 1
KatFile.com
Turbobit.net
FileFactory.com
Rapidgator.net
Download 2
KatFile.com
Turbobit.net
FileFactory.com
Rapidgator.net

Tracklist:

Disc 1
1 Dear John 
2 Morning Dew 
3 If You See My Baby 
4 Broken Down Angel 
5 Bad, Bad Boy 
6 This Flight Tonight 
7 Shanghai’d In Shanghai 
8 Love Hurts 
9 Hair Of The Dog 
10 My White Bicycle 
11 Holy Roller 
12 Carry Out Feelings 
13 You’re The Violin 
14 I Don’t Want To Go Without You 
15 Somebody To Roll 
16 Gone Dead Train 
17 Place In Your Heart 
18 May The Sunshine 
19 Whatever You Want Babe 

Disc 2
1 Star 
2 Holiday 
3 Hearts Grown Cold (Live) 
4 Dressed To Kill 
5 Morning Dew '81 
6 Love Leads To Madness 
7 Games 
8 Dream On 
9 Where Are You Now 
10 Ruby Tuesday 
11 Party Down 
12 Cinema 
13 Piece Of My Heart 
14 Winner On The Night 
15 Every Time It Rains 
16 Tell Me That You Love Me 
17 Move Me 
18 Love Hurts (Rock Orchestra Version)

EAC-Log, CUE-Sheed & NFO:

Click to open spoiler
Exact Audio Copy V1.0 beta 3 from 29. August 2011

EAC extraction logfile from 8. February 2014, 11:42

Nazareth / The Singles (SALVOMDCD30) CD1

Used drive : ATAPI iHAS124 B Adapter: 2 ID: 0

Read mode : Secure
Utilize accurate stream : Yes
Defeat audio cache : Yes
Make use of C2 pointers : No

Read offset correction : 6
Overread into Lead-In and Lead-Out : No
Fill up missing offset samples with silence : Yes
Delete leading and trailing silent blocks : No
Null samples used in CRC calculations : Yes
Used interface : Native Win32 interface for Win NT & 2000

Used output format : User Defined Encoder
Selected bitrate : 1024 kBit/s
Quality : High
Add ID3 tag : No
Command line compressor : C:\Program Files (x86)\Exact Audio Copy\FLAC\FLAC.EXE
Additional command line options : -V -8 -T “Date=%year%” -T “Genre=%genre%” %source%

TOC of the extracted CD

Track | Start | Length | Start sector | End sector
———————————————————
1 | 0:00.00 | 3:47.21 | 0 | 17045
2 | 3:47.21 | 3:13.45 | 17046 | 31565
3 | 7:00.66 | 3:00.05 | 31566 | 45070
4 | 10:00.71 | 3:45.01 | 45071 | 61946
5 | 13:45.72 | 3:58.11 | 61947 | 79807
6 | 17:44.08 | 3:24.20 | 79808 | 95127
7 | 21:08.28 | 3:44.33 | 95128 | 111960
8 | 24:52.61 | 3:53.01 | 111961 | 129436
9 | 28:45.62 | 4:11.61 | 129437 | 148322
10 | 32:57.48 | 3:26.59 | 148323 | 163831
11 | 36:24.32 | 3:24.56 | 163832 | 179187
12 | 39:49.13 | 3:18.64 | 179188 | 194101
13 | 43:08.02 | 4:44.51 | 194102 | 215452
14 | 47:52.53 | 3:46.38 | 215453 | 232440
15 | 51:39.16 | 3:54.54 | 232441 | 250044
16 | 55:33.70 | 3:44.56 | 250045 | 266900
17 | 59:18.51 | 3:01.20 | 266901 | 280495
18 | 62:19.71 | 3:31.15 | 280496 | 296335
19 | 65:51.11 | 3:41.47 | 296336 | 312957

Range status and errors

Selected range

Filename G:\CD\Nazareth – The Singles (SALVOMDCD30) CD1.wav

Peak level 98.8 %
Extraction speed 6.3 X
Range quality 100.0 %
Test CRC DEE92E71
Copy CRC DEE92E71
Copy OK

No errors occurred

AccurateRip summary

Track 1 accurately ripped (confidence 2) [40DEE797] (AR v2)
Track 2 accurately ripped (confidence 2) [77E921CF] (AR v2)
Track 3 accurately ripped (confidence 2) [8A62EAE8] (AR v2)
Track 4 accurately ripped (confidence 2) [4B8068F9] (AR v2)
Track 5 accurately ripped (confidence 2) [84931113] (AR v2)
Track 6 accurately ripped (confidence 2) [9A737D42] (AR v2)
Track 7 accurately ripped (confidence 2) [D48C069D] (AR v2)
Track 8 accurately ripped (confidence 2) [474B7E13] (AR v2)
Track 9 accurately ripped (confidence 2) [2AF793AD] (AR v2)
Track 10 accurately ripped (confidence 2) [B493978A] (AR v2)
Track 11 accurately ripped (confidence 2) [7E2D4B04] (AR v2)
Track 12 accurately ripped (confidence 2) [8F519729] (AR v2)
Track 13 accurately ripped (confidence 2) [35AFE472] (AR v2)
Track 14 accurately ripped (confidence 2) [890CFA08] (AR v2)
Track 15 accurately ripped (confidence 2) [D26EABE0] (AR v2)
Track 16 accurately ripped (confidence 2) [62D492CE] (AR v2)
Track 17 accurately ripped (confidence 2) [484F4C37] (AR v2)
Track 18 accurately ripped (confidence 2) [9C37F000] (AR v2)
Track 19 accurately ripped (confidence 2) [21E71681] (AR v2)

All tracks accurately ripped

End of status report

==== Log checksum B64F7960DCB8CAA636B78AFF0513447734E41CCAB4AFC0B6EE159FF395F57D2A ====

Exact Audio Copy V1.0 beta 3 from 29. August 2011

EAC extraction logfile from 8. February 2014, 12:05

Nazareth / The Singles (SALVOMDCD30) CD2

Used drive : ATAPI iHAS124 B Adapter: 2 ID: 0

Read mode : Secure
Utilize accurate stream : Yes
Defeat audio cache : Yes
Make use of C2 pointers : No

Read offset correction : 6
Overread into Lead-In and Lead-Out : No
Fill up missing offset samples with silence : Yes
Delete leading and trailing silent blocks : No
Null samples used in CRC calculations : Yes
Used interface : Native Win32 interface for Win NT & 2000

Used output format : User Defined Encoder
Selected bitrate : 1024 kBit/s
Quality : High
Add ID3 tag : No
Command line compressor : C:\Program Files (x86)\Exact Audio Copy\FLAC\FLAC.EXE
Additional command line options : -V -8 -T “Date=%year%” -T “Genre=%genre%” %source%

TOC of the extracted CD

Track | Start | Length | Start sector | End sector
———————————————————
1 | 0:00.00 | 4:53.63 | 0 | 22037
2 | 4:53.63 | 3:37.14 | 22038 | 38326
3 | 8:31.02 | 3:57.35 | 38327 | 56136
4 | 12:28.37 | 3:31.73 | 56137 | 72034
5 | 16:00.35 | 3:57.07 | 72035 | 89816
6 | 19:57.42 | 4:04.04 | 89817 | 108120
7 | 24:01.46 | 4:46.29 | 108121 | 129599
8 | 28:48.00 | 3:26.14 | 129600 | 145063
9 | 32:14.14 | 3:55.15 | 145064 | 162703
10 | 36:09.29 | 3:27.31 | 162704 | 178259
11 | 39:36.60 | 4:53.62 | 178260 | 200296
12 | 44:30.47 | 4:43.11 | 200297 | 221532
13 | 49:13.58 | 4:26.23 | 221533 | 241505
14 | 53:40.06 | 4:11.00 | 241506 | 260330
15 | 57:51.06 | 4:11.68 | 260331 | 279223
16 | 62:02.74 | 3:21.40 | 279224 | 294338
17 | 65:24.39 | 3:44.72 | 294339 | 311210
18 | 69:09.36 | 4:06.59 | 311211 | 329719

Range status and errors

Selected range

Filename G:\CD\Nazareth – The Singles (SALVOMDCD30) CD2.wav

Peak level 98.8 %
Extraction speed 6.4 X
Range quality 100.0 %
Test CRC 9E8BBFDE
Copy CRC 9E8BBFDE
Copy OK

No errors occurred

AccurateRip summary

Track 1 accurately ripped (confidence 2) [C4643DAB] (AR v2)
Track 2 accurately ripped (confidence 2) [70E6FC4E] (AR v2)
Track 3 accurately ripped (confidence 2) [90FED618] (AR v2)
Track 4 accurately ripped (confidence 2) [265F97C7] (AR v2)
Track 5 accurately ripped (confidence 2) [8BCCA811] (AR v2)
Track 6 accurately ripped (confidence 2) [3FE210EA] (AR v2)
Track 7 accurately ripped (confidence 2) [4AC4EA75] (AR v2)
Track 8 accurately ripped (confidence 2) [88E782C5] (AR v2)
Track 9 accurately ripped (confidence 2) [C21039CA] (AR v2)
Track 10 accurately ripped (confidence 2) [6CF2C863] (AR v2)
Track 11 accurately ripped (confidence 2) [2C1AF877] (AR v2)
Track 12 accurately ripped (confidence 2) [AC513138] (AR v2)
Track 13 accurately ripped (confidence 2) [C4C08217] (AR v2)
Track 14 accurately ripped (confidence 2) [A3371C3A] (AR v2)
Track 15 accurately ripped (confidence 2) [C5866442] (AR v2)
Track 16 accurately ripped (confidence 2) [E35A5741] (AR v2)
Track 17 accurately ripped (confidence 2) [347C5A65] (AR v2)
Track 18 accurately ripped (confidence 2) [C1E9E8E8] (AR v2)

All tracks accurately ripped

End of status report

==== Log checksum 18041584AC907743550614E9DF8FEA47A1B66B35A8E70A69D203C1B71A9EF0C6 ====

REM GENRE “Hard Rock”
REM DATE 2012
REM DISCID 0E104C13
REM COMMENT “ExactAudioCopy v1.0b3”
PERFORMER “Nazareth”
TITLE “The Singles (SALVOMDCD30) CD1”
FILE “Nazareth – The Singles (SALVOMDCD30) CD1.flac” WAVE
TRACK 01 AUDIO
TITLE “Dear John”
PERFORMER “Nazareth”
ISRC GBCBR0401426
INDEX 01 00:00:00
TRACK 02 AUDIO
TITLE “Morning Dew”
PERFORMER “Nazareth”
ISRC GBCBR0401432
INDEX 01 03:47:21
TRACK 03 AUDIO
TITLE “If You See My Baby”
PERFORMER “Nazareth”
ISRC GBCBR0402629
INDEX 01 07:00:66
TRACK 04 AUDIO
TITLE “Broken Down Angel”
PERFORMER “Nazareth”
ISRC GBCQV0494586
INDEX 01 10:00:71
TRACK 05 AUDIO
TITLE “Bad Bad Boy”
PERFORMER “Nazareth”
ISRC GBCQV0494589
INDEX 01 13:45:72
TRACK 06 AUDIO
TITLE “This Flight Tonight”
PERFORMER “Nazareth”
ISRC GBCBR0400200
INDEX 01 17:44:08
TRACK 07 AUDIO
TITLE “Shanghai’d In Shanghai”
PERFORMER “Nazareth”
ISRC GBCBR0402417
INDEX 01 21:08:28
TRACK 08 AUDIO
TITLE “Love Hurts”
PERFORMER “Nazareth”
ISRC GBCBR0402270
INDEX 01 24:52:61
TRACK 09 AUDIO
TITLE “Hair Of The Dog”
PERFORMER “Nazareth”
ISRC GBCBR0402135
INDEX 01 28:45:62
TRACK 10 AUDIO
TITLE “Mt White Bicycle”
PERFORMER “Nazareth”
ISRC GBCBR0402553
INDEX 01 32:57:48
TRACK 11 AUDIO
TITLE “Holy Roller”
PERFORMER “Nazareth”
ISRC GBCBR0402272
INDEX 01 36:24:32
TRACK 12 AUDIO
TITLE “Carry Out Feelings”
PERFORMER “Nazareth”
ISRC GBCBR0402545
INDEX 01 39:49:13
TRACK 13 AUDIO
TITLE “You’re The Violin”
PERFORMER “Nazareth”
ISRC GBCBR0402547
INDEX 01 43:08:02
TRACK 14 AUDIO
TITLE “I Don’t Want To Go On Without You”
PERFORMER “Nazareth”
ISRC GBCBR0402561
INDEX 01 47:52:53
TRACK 15 AUDIO
TITLE “Somebody To Roll”
PERFORMER “Nazareth”
ISRC GBCBR0402555
INDEX 01 51:39:16
TRACK 16 AUDIO
TITLE “Gone Dead Train”
PERFORMER “Nazareth”
ISRC GBCBR0401416
INDEX 01 55:33:70
TRACK 17 AUDIO
TITLE “Place In Your Heart”
PERFORMER “Nazareth”
ISRC GBCBR0401423
INDEX 01 59:18:51
TRACK 18 AUDIO
TITLE “May The Sunshine”
PERFORMER “Nazareth”
ISRC GBCBR0402434
INDEX 01 62:19:71
TRACK 19 AUDIO
TITLE “Whatever You Want Babe”
PERFORMER “Nazareth”
ISRC GBCBR0402431
INDEX 01 65:51:11

REM GENRE “Hard Rock”
REM DATE 2012
REM DISCID 05112C12
REM COMMENT “ExactAudioCopy v1.0b3”
PERFORMER “Nazareth”
TITLE “The Singles (SALVOMDCD30) CD2”
FILE “Nazareth – The Singles (SALVOMDCD30) CD2.flac” WAVE
TRACK 01 AUDIO
TITLE “Star”
PERFORMER “Nazareth”
ISRC GBCBR0402429
INDEX 01 00:00:00
TRACK 02 AUDIO
TITLE “Holiday”
PERFORMER “Nazareth”
ISRC GBCBR0402505
INDEX 01 04:53:63
TRACK 03 AUDIO
TITLE “Heart’s Grown Cold (Live)”
PERFORMER “Nazareth”
ISRC GBCBR0402508
INDEX 01 08:31:02
TRACK 04 AUDIO
TITLE “Dressed To Kill”
PERFORMER “Nazareth”
ISRC GBCBR0402522
INDEX 01 12:28:37
TRACK 05 AUDIO
TITLE “Morning Dew (New Version)”
PERFORMER “Nazareth”
ISRC GBCBR0402532
INDEX 01 16:00:35
TRACK 06 AUDIO
TITLE “Love Leads To Madness”
PERFORMER “Nazareth”
ISRC GBCBR0402569
INDEX 01 19:57:42
TRACK 07 AUDIO
TITLE “Games”
PERFORMER “Nazareth”
ISRC GBCBR0402573
INDEX 01 24:01:46
TRACK 08 AUDIO
TITLE “Dream On”
PERFORMER “Nazareth”
ISRC GBCBR0402635
INDEX 01 28:48:00
TRACK 09 AUDIO
TITLE “Where Are You Now?”
PERFORMER “Nazareth”
ISRC GBCBR0402642
INDEX 01 32:14:14
TRACK 10 AUDIO
TITLE “Ruby Tuesday”
PERFORMER “Nazareth”
ISRC GBCBR0402589
INDEX 01 36:09:29
TRACK 11 AUDIO
TITLE “Party Down”
PERFORMER “Nazareth”
ISRC GBHVK1100001
INDEX 01 39:36:60
TRACK 12 AUDIO
TITLE “Cinema”
PERFORMER “Nazareth”
ISRC GBCBR0401434
INDEX 01 44:30:47
TRACK 13 AUDIO
TITLE “Piece Of My Heart”
PERFORMER “Nazareth”
ISRC GBCBR0402804
INDEX 01 49:13:58
TRACK 14 AUDIO
TITLE “Winner On The Night”
PERFORMER “Nazareth”
ISRC GBCBR0402612
INDEX 01 53:40:06
TRACK 15 AUDIO
TITLE “Every Time It Rains”
PERFORMER “Nazareth”
ISRC GBCBR0402651
INDEX 01 57:51:06
TRACK 16 AUDIO
TITLE “Tell Me That You Love Me”
PERFORMER “Nazareth”
ISRC GBCBR0402656
INDEX 01 62:02:74
TRACK 17 AUDIO
TITLE “Move Me”
PERFORMER “Nazareth”
ISRC GBCBR0402664
INDEX 01 65:24:39
TRACK 18 AUDIO
TITLE “Love Hurts (Rock Orchestra Version)”
PERFORMER “Nazareth”
ISRC GBCBR0402672
INDEX 01 69:09:36


Leave a Reply

Your email address will not be published. Required fields are marked *

Enter the text from the image below
 

This site uses Akismet to reduce spam. Learn how your comment data is processed.