Nazareth – The Newz




[Total: 0    Average: 0/5]

Artist: Nazareth
Year: 2008
Genre: Rock
Notes: Discogs
Add. Notes:
Cover incl.: Yes
Encoder: FLAC
Bitrate: ~1000 kBit/s (44.1 kHz/16 Bit/s)
Log & Cue incl.: Yes
Size: 581,8 MB
Password: “slam” (without ” “)


All Downloads/Hosters are compatible

Download 1
KatFile.com
Turbobit.net
FileFactory.com
Rapidgator.net
Download 2
KatFile.com
Turbobit.net
FileFactory.com
Rapidgator.net
Download 3
KatFile.com
Turbobit.net
FileFactory.com
Rapidgator.net

Tracklist:

1 Goin' Loco 5:24
2 Day At The Beach 4:56
3 Liar 6:44
4 See Me 4:54
5 Enough Love 5:50
6 Warning 4:36
7 Mean Streets 4:16
8 Road Trip 2:48
9 Gloria 5:48
10 Keep On Travellin' 3:56
11 Loggin' On 4:48
12 The Gathering 7:08
13a Dying Breed 4:05
13b (silence) 5:00
13c The Goblin King 4:18

EAC-Log, CUE-Sheed & NFO:

Click to open spoiler
Exact Audio Copy V0.99 prebeta 5 from 4. May 2009

Отчёт EAC об извлечении, выполненном 19. июля 2009, 16:10

Nazareth / the Newz

Дисковод: MATSHITADVD-RAM UJ-850S Adapter: 1 ID: 0

Режим чтения : Достоверность
Использование точного потока : Да
Отключение кэша аудио : Да
Использование указателей C2 : Нет

Коррекция смещения при чтении : 102
Способность читать области Lead-in и Lead-out : Нет
Заполнение пропущенных сэмплов тишиной : Да
Удаление блоков с тишиной в начале и конце : Нет
При вычислениях CRC использовались нулевые сэмплы : Да
Интерфейс : Встроенный Win32-интерфейс для Win NT/2000
Обработка зазоров : Добавлено к предыдущему треку

Выходной формат : Пользовательский кодировщик
Выбранный битрейт : 1024 kBit/s
Качество : Высокий
Добавление ID3-тэга : Нет
Утилита сжатия : C:\Program Files\Exact Audio Copy\Flac\flac.exe
Дополнительные параметры : -8 -V -T “ARTIST=%a” -T “TITLE=%t” -T “ALBUM=%g” -T “DATE=%y” -T “TRACKNUMBER=%n” -T “TOTALTRACKS=%x” -T “GENRE=%m” -T “ALBUM ARTIST=%v” -T “ALBUMARTIST=%v” -T “COMMENT=EAC V0.99 prebeta 5, Secure Mode, AccurateRip, FLAC -8” %s

TOC извлечённого CD

Трек | Старт | Длительность | Начальный сектор | Конечный сектор
———————————————————————
1 | 0:00.00 | 5:24.24 | 0 | 24323
2 | 5:24.24 | 4:55.58 | 24324 | 46506
3 | 10:20.07 | 6:43.63 | 46507 | 76794
4 | 17:03.70 | 4:53.65 | 76795 | 98834
5 | 21:57.60 | 5:49.59 | 98835 | 125068
6 | 27:47.44 | 4:35.43 | 125069 | 145736
7 | 32:23.12 | 4:15.73 | 145737 | 164934
8 | 36:39.10 | 2:47.64 | 164935 | 177523
9 | 39:26.74 | 5:47.40 | 177524 | 203588
10 | 45:14.39 | 3:56.32 | 203589 | 221320
11 | 49:10.71 | 4:47.64 | 221321 | 242909
12 | 53:58.60 | 7:08.14 | 242910 | 275023
13 | 61:06.74 | 13:22.34 | 275024 | 335207

Трек 1

Имя файла C:\Users\ALIK\Desktop\music\Nazareth The Newz\Goin’ Loco.wav

Длина предзазора 0:00:02.00

Пиковый уровень 99.8 %
Качество трека 100.0 %
CRC теста 0B3A1C8E
CRC копии 0B3A1C8E
Точное извлечение (достоверность 9) [B62850BF]
Копирование… OK

Трек 2

Имя файла C:\Users\ALIK\Desktop\music\Nazareth The Newz\Day At The Beach.wav

Длина предзазора 0:00:00.71

Пиковый уровень 99.8 %
Качество трека 100.0 %
CRC теста 93DAC462
CRC копии 93DAC462
Точное извлечение (достоверность 9) [A128AE74]
Копирование… OK

Трек 3

Имя файла C:\Users\ALIK\Desktop\music\Nazareth The Newz\Liar.wav

Длина предзазора 0:00:01.18

Пиковый уровень 99.8 %
Качество трека 100.0 %
CRC теста BB0C3496
CRC копии BB0C3496
Точное извлечение (достоверность 9) [E061D30D]
Копирование… OK

Трек 4

Имя файла C:\Users\ALIK\Desktop\music\Nazareth The Newz\See Me.wav

Длина предзазора 0:00:01.54

Пиковый уровень 99.8 %
Качество трека 99.9 %
CRC теста 440E2535
CRC копии 440E2535
Точное извлечение (достоверность 9) [9513FAD5]
Копирование… OK

Трек 5

Имя файла C:\Users\ALIK\Desktop\music\Nazareth The Newz\Enough Love.wav

Длина предзазора 0:00:01.46

Пиковый уровень 99.8 %
Качество трека 100.0 %
CRC теста BE9A7E87
CRC копии BE9A7E87
Точное извлечение (достоверность 9) [4F5C5B52]
Копирование… OK

Трек 6

Имя файла C:\Users\ALIK\Desktop\music\Nazareth The Newz\Warning.wav

Длина предзазора 0:00:03.10

Пиковый уровень 99.8 %
Качество трека 100.0 %
CRC теста 9D6B88F1
CRC копии 9D6B88F1
Точное извлечение (достоверность 9) [C9D659AA]
Копирование… OK

Трек 7

Имя файла C:\Users\ALIK\Desktop\music\Nazareth The Newz\Mean Streets.wav

Длина предзазора 0:00:01.67

Пиковый уровень 99.8 %
Качество трека 100.0 %
CRC теста DD2EC2EE
CRC копии DD2EC2EE
Точное извлечение (достоверность 9) [BC8F95A6]
Копирование… OK

Трек 8

Имя файла C:\Users\ALIK\Desktop\music\Nazareth The Newz\Road Trip.wav

Длина предзазора 0:00:01.67

Пиковый уровень 99.8 %
Качество трека 100.0 %
CRC теста DFD7E214
CRC копии DFD7E214
Точное извлечение (достоверность 9) [8F5F80A6]
Копирование… OK

Трек 9

Имя файла C:\Users\ALIK\Desktop\music\Nazareth The Newz\Gloria.wav

Длина предзазора 0:00:00.62

Пиковый уровень 99.8 %
Качество трека 100.0 %
CRC теста 45A8DFFF
CRC копии 45A8DFFF
Точное извлечение (достоверность 9) [7C066D87]
Копирование… OK

Трек 10

Имя файла C:\Users\ALIK\Desktop\music\Nazareth The Newz\Keep On Travellin’.wav

Длина предзазора 0:00:01.27

Пиковый уровень 99.8 %
Качество трека 99.9 %
CRC теста 63F7613E
CRC копии 63F7613E
Точное извлечение (достоверность 9) [58CF3655]
Копирование… OK

Трек 11

Имя файла C:\Users\ALIK\Desktop\music\Nazareth The Newz\Loggin’ On.wav

Длина предзазора 0:00:01.68

Пиковый уровень 97.4 %
Качество трека 100.0 %
CRC теста 4A9EDE66
CRC копии 4A9EDE66
Точное извлечение (достоверность 9) [79D098BF]
Копирование… OK

Трек 12

Имя файла C:\Users\ALIK\Desktop\music\Nazareth The Newz\The Gathering.wav

Длина предзазора 0:00:01.58

Пиковый уровень 99.8 %
Качество трека 100.0 %
CRC теста DC0508B7
CRC копии DC0508B7
Точное извлечение (достоверность 9) [7402B918]
Копирование… OK

Трек 13

Имя файла C:\Users\ALIK\Desktop\music\Nazareth The Newz\Dying Breed.wav

Длина предзазора 0:00:01.54

Пиковый уровень 99.8 %
Качество трека 100.0 %
CRC теста B1B7B67B
CRC копии B1B7B67B
Точное извлечение (достоверность 9) [15F1FDD3]
Копирование… OK

Все треки извлечены точно

Ошибок не произошло

Конец отчёта

REM GENRE Rock
REM DATE 2008
REM DISCID B011750D
REM COMMENT “ExactAudioCopy v0.99pb5”
PERFORMER “Nazareth”
TITLE “the Newz”
FILE “Goin’ Loco.wav” WAVE
TRACK 01 AUDIO
TITLE “Goin’ Loco”
PERFORMER “Nazareth”
INDEX 01 00:00:00
TRACK 02 AUDIO
TITLE “Day At The Beach”
PERFORMER “Nazareth”
INDEX 00 05:23:28
FILE “Day At The Beach.wav” WAVE
INDEX 01 00:00:00
TRACK 03 AUDIO
TITLE “Liar”
PERFORMER “Nazareth”
INDEX 00 04:54:40
FILE “Liar.wav” WAVE
INDEX 01 00:00:00
TRACK 04 AUDIO
TITLE “See Me”
PERFORMER “Nazareth”
INDEX 00 06:42:09
FILE “See Me.wav” WAVE
INDEX 01 00:00:00
TRACK 05 AUDIO
TITLE “Enough Love”
PERFORMER “Nazareth”
INDEX 00 04:52:19
FILE “Enough Love.wav” WAVE
INDEX 01 00:00:00
TRACK 06 AUDIO
TITLE “Warning”
PERFORMER “Nazareth”
INDEX 00 05:46:49
FILE “Warning.wav” WAVE
INDEX 01 00:00:00
TRACK 07 AUDIO
TITLE “Mean Streets”
PERFORMER “Nazareth”
INDEX 00 04:33:51
FILE “Mean Streets.wav” WAVE
INDEX 01 00:00:00
TRACK 08 AUDIO
TITLE “Road Trip”
PERFORMER “Nazareth”
INDEX 00 04:14:06
FILE “Road Trip.wav” WAVE
INDEX 01 00:00:00
TRACK 09 AUDIO
TITLE “Gloria”
PERFORMER “Nazareth”
INDEX 00 02:47:02
FILE “Gloria.wav” WAVE
INDEX 01 00:00:00
TRACK 10 AUDIO
TITLE “Keep On Travellin'”
PERFORMER “Nazareth”
INDEX 00 05:46:13
FILE “Keep On Travellin’.wav” WAVE
INDEX 01 00:00:00
TRACK 11 AUDIO
TITLE “Loggin’ On”
PERFORMER “Nazareth”
INDEX 00 03:54:39
FILE “Loggin’ On.wav” WAVE
INDEX 01 00:00:00
TRACK 12 AUDIO
TITLE “The Gathering”
PERFORMER “Nazareth”
INDEX 00 04:46:06
FILE “The Gathering.wav” WAVE
INDEX 01 00:00:00
TRACK 13 AUDIO
TITLE “Dying Breed”
PERFORMER “Nazareth”
INDEX 00 07:06:35
FILE “Dying Breed.wav” WAVE
INDEX 01 00:00:00


Spread the Download

Leave a Reply

Your email address will not be published. Required fields are marked *

Enter the text from the image below
 

This site uses Akismet to reduce spam. Learn how your comment data is processed.