Nazareth – The Fool Circle (Remastered)




[Total: 0    Average: 0/5]

Artist: Nazareth
Year: 1980/2002
Genre: Rock
Notes: Discogs
Add. Notes: Remastered
Cover incl.: Yes
Encoder: FLAC
Bitrate: ~900 kBit/s (44.1 kHz/16 Bit/s)
Log & Cue incl.: Yes
Size: 594,39 MB
Password: “slam” (without ” “)


All Downloads/Hosters are compatible

Download 1
Share-online.biz
KatFile.com
Rapidgator.net
Download 2
Share-online.biz
KatFile.com
Rapidgator.net

Tracklist:

1. Dressed To Kill 	
2. Another Year 	
3. Moonlight Eyes 	
4. Pop The Silo 	
5. Let Me Be Your Leader 	
6. We Are The People 	
7. Every Young Man's Dream 	
8. Little Part Of You 	
9. Cocaine (Live) 	
10. Victoria 	
Bonus Tracks
11. Morning Dew (1981 Version) 	
12. Dressed To Kill (Single Edit) 	
13. Pop The Silo (Single Edit) 	
14. Let Me Be Your Leader (Live) 	
15. Dressed To Kill (Live) 	
16. Pop The Silo (Live) 	
17. Morgentau (German Version)

EAC-Log, CUE-Sheed & NFO:

Click to open spoiler
Exact Audio Copy V1.1 from 23. June 2015

Отчёт EAC об извлечении, выполненном 18. августа 2016, 9:24

Nazareth / The Fool Circle

Дисковод: TSSTcorpBDDVDW SE-506BB Adapter: 1 ID: 1

Режим чтения : Достоверность
Использование точного потока : Да
Отключение кэша аудио : Да
Использование указателей C2 : Нет

Коррекция смещения при чтении : 6
Способность читать области Lead-in и Lead-out : Нет
Заполнение пропущенных сэмплов тишиной : Да
Удаление блоков с тишиной в начале и конце : Нет
При вычислениях CRC использовались нулевые сэмплы : Да
Интерфейс : Встроенный Win32-интерфейс для Win NT/2000

Выходной формат : Внутренние WAV-операции
Формат сэмплов : 44.100 Гц; 16 бит; стерео

TOC извлечённого CD

Трек | Старт | Длительность | Начальный сектор | Конечный сектор
———————————————————————
1 | 0:00.00 | 3:33.72 | 0 | 16046
2 | 3:33.72 | 3:31.23 | 16047 | 31894
3 | 7:05.20 | 3:36.62 | 31895 | 48156
4 | 10:42.07 | 3:20.24 | 48157 | 63180
5 | 14:02.31 | 3:53.18 | 63181 | 80673
6 | 17:55.49 | 3:36.42 | 80674 | 96915
7 | 21:32.16 | 3:19.51 | 96916 | 111891
8 | 24:51.67 | 3:31.10 | 111892 | 127726
9 | 28:23.02 | 4:37.04 | 127727 | 148505
10 | 33:00.06 | 3:24.51 | 148506 | 163856
11 | 36:24.57 | 3:56.08 | 163857 | 181564
12 | 40:20.65 | 3:47.55 | 181565 | 198644
13 | 44:08.45 | 3:18.19 | 198645 | 213513
14 | 47:26.64 | 4:16.39 | 213514 | 232752
15 | 51:43.28 | 3:32.68 | 232753 | 248720
16 | 55:16.21 | 1:51.47 | 248721 | 257092
17 | 57:07.68 | 4:03.35 | 257093 | 275352

Характеристики диапазона извлечения и сообщения об ошибках

Выбранный диапазон

Имя файла D:\Temp\Nazareth – 1981 – The Fool Circle [2002 Eagle Records, EAMCD137].wav

Пиковый уровень 100.0 %
Скорость извлечения 4.8 X
Качество диапазона 100.0 %
CRC теста D0069B8A
CRC копии D0069B8A
Копирование… OK

Ошибок не произошло

AccurateRip: сводка

Трек 1 : извлечено точно (доверие 11) [2BFBB463] (AR v2)
Трек 2 : извлечено точно (доверие 11) [FBC51299] (AR v2)
Трек 3 : извлечено точно (доверие 11) [31FC9116] (AR v2)
Трек 4 : извлечено точно (доверие 11) [F96FEB18] (AR v2)
Трек 5 : извлечено точно (доверие 11) [285492A1] (AR v2)
Трек 6 : извлечено точно (доверие 11) [2774823B] (AR v2)
Трек 7 : извлечено точно (доверие 11) [C027FF8F] (AR v2)
Трек 8 : извлечено точно (доверие 11) [A69B0F7A] (AR v2)
Трек 9 : извлечено точно (доверие 11) [0E0EFFCE] (AR v2)
Трек 10 : извлечено точно (доверие 11) [83AF0482] (AR v2)
Трек 11 : извлечено точно (доверие 10) [39D57DEC] (AR v2)
Трек 12 : извлечено точно (доверие 10) [0274D0BC] (AR v2)
Трек 13 : извлечено точно (доверие 10) [B5BF86F0] (AR v2)
Трек 14 : извлечено точно (доверие 10) [BFCF9770] (AR v2)
Трек 15 : извлечено точно (доверие 10) [01E734BF] (AR v2)
Трек 16 : извлечено точно (доверие 10) [20E5CDC6] (AR v2)
Трек 17 : извлечено точно (доверие 10) [0B977DAC] (AR v2)

Все треки извлечены точно

Конец отчёта

==== Контрольная сумма отчёта B5E246FC80C188EBF63D15A57B6F3702556F2A4365C6FDA98189133E65FC8365 ====

REM GENRE “Classic Rock”
REM DATE 1981
REM DISCID EE0E5711
REM COMMENT “ExactAudioCopy v1.1”
PERFORMER “Nazareth”
TITLE “The Fool Circle”
FILE “Nazareth – 1980 – The Fool Circle [2002 Eagle Records, EAMCD137].flac” WAVE
TRACK 01 AUDIO
TITLE “Dressed To Kill”
PERFORMER “Nazareth”
INDEX 01 00:00:00
TRACK 02 AUDIO
TITLE “Another Year”
PERFORMER “Nazareth”
INDEX 00 03:32:15
INDEX 01 03:33:72
TRACK 03 AUDIO
TITLE “Moonlight Eyes”
PERFORMER “Nazareth”
INDEX 00 07:03:38
INDEX 01 07:05:20
TRACK 04 AUDIO
TITLE “Pop The Silo”
PERFORMER “Nazareth”
INDEX 00 10:40:25
INDEX 01 10:42:07
TRACK 05 AUDIO
TITLE “Let Me Be Your Leader”
PERFORMER “Nazareth”
INDEX 00 14:00:49
INDEX 01 14:02:31
TRACK 06 AUDIO
TITLE “We Are The People”
PERFORMER “Nazareth”
INDEX 00 17:53:67
INDEX 01 17:55:49
TRACK 07 AUDIO
TITLE “Every Young Man’s Dream”
PERFORMER “Nazareth”
INDEX 00 21:30:34
INDEX 01 21:32:16
TRACK 08 AUDIO
TITLE “Little Part Of You”
PERFORMER “Nazareth”
INDEX 00 24:50:10
INDEX 01 24:51:67
TRACK 09 AUDIO
TITLE “Cocaine (live)”
PERFORMER “Nazareth”
INDEX 00 28:21:20
INDEX 01 28:23:02
TRACK 10 AUDIO
TITLE “Victoria”
PERFORMER “Nazareth”
INDEX 00 32:58:24
INDEX 01 33:00:06
TRACK 11 AUDIO
TITLE “Morning Dew [*][1981 version]”
PERFORMER “Nazareth”
INDEX 00 36:19:63
INDEX 01 36:24:57
TRACK 12 AUDIO
TITLE “Dressed To Kill [*][single edit]”
PERFORMER “Nazareth”
INDEX 00 40:19:08
INDEX 01 40:20:65
TRACK 13 AUDIO
TITLE “Pop The Silo [*][single edit]”
PERFORMER “Nazareth”
INDEX 00 44:06:63
INDEX 01 44:08:45
TRACK 14 AUDIO
TITLE “Let Me Be Your Leader [*][live]”
PERFORMER “Nazareth”
INDEX 00 47:25:07
INDEX 01 47:26:64
TRACK 15 AUDIO
TITLE “Dressed To Kill [*][live]”
PERFORMER “Nazareth”
INDEX 01 51:43:28
TRACK 16 AUDIO
TITLE “Pop The Silo [*][live]”
PERFORMER “Nazareth”
INDEX 01 55:16:21
TRACK 17 AUDIO
TITLE “Morgentau [*][German version]”
PERFORMER “Nazareth”
INDEX 00 57:06:11
INDEX 01 57:07:68


Spread the Download

Leave a Reply

Your email address will not be published. Required fields are marked *

Enter the text from the image below
 

This site uses Akismet to reduce spam. Learn how your comment data is processed.