Nazareth – The Fool Circle (Remastered)




No Cover available

Artist: Nazareth
Year: 1980/2010
Genre: Rock
Notes: Discogs
Add. Notes: Remastered
Watch Songs on: YouTube
Cover incl.: Yes
Encoder: FLAC
Bitrate: ~1000 kBit/s (44.1 kHz/16 Bit/s)
Log & Cue incl.: Yes/Yes
Size: 550,7 MB
Password: “slam” (without ” “)


All Downloads/Hosters are compatible

Download 1
KatFile.com
Turbobit.net
Rapidgator.net
FileFactory.com
Download 2
KatFile.com
Turbobit.net
Rapidgator.net
FileFactory.com

Tracklist:

01. Dressed To Kill
02. Another Year
03. Moonlight Eyes
04. Pop The Silo
05. Let Me Be Your Leader
06. We Are The People
07. Every Young Man's Dream
08. Little Part Of You
09. Cocaine (live)
10. Victoria
Bonus Tracks
11. Morgantau
12. Crazy (a suitable case for treatment)
13. Razamanaz (live)
14. Heart's Grown Cold (live)
15. Talkin' To One Of The Boys (live)
16. Hair Of The Dog (live)

EAC-Log, CUE-Sheed & NFO:

Click to open spoiler
Exact Audio Copy V1.0 beta 3 from 29. August 2011

EAC extraction logfile from 25. January 2013, 22:45

Nazareth / The Fool Circle (Remaster 2010)

Used drive : ATAPI iHAS124 B Adapter: 2 ID: 0

Read mode : Secure
Utilize accurate stream : Yes
Defeat audio cache : Yes
Make use of C2 pointers : No

Read offset correction : 6
Overread into Lead-In and Lead-Out : No
Fill up missing offset samples with silence : Yes
Delete leading and trailing silent blocks : No
Null samples used in CRC calculations : Yes
Used interface : Native Win32 interface for Win NT & 2000

Used output format : User Defined Encoder
Selected bitrate : 1024 kBit/s
Quality : High
Add ID3 tag : No
Command line compressor : C:\Program Files (x86)\Exact Audio Copy\FLAC\FLAC.EXE
Additional command line options : -8 -V -T “ARTIST=%artist%” -T “TITLE=%title%” -T “ALBUM=%albumtitle%” -T “DATE=%year%” -T “TRACKNUMBER=%tracknr%” -T “GENRE=%genre%” -T “PERFORMER=%albuminterpret%” -T “COMPOSER=%composer%” %haslyrics%–tag-from-file=LYRICS=”%lyricsfile%”%haslyrics% -T “ALBUMARTIST=%albumartist%” -T “DISCNUMBER=%cdnumber%” -T “TOTALDISCS=%totalcds%” -T “TOTALTRACKS=%numtracks%” -T “COMMENT=%comment%” %source% -o %dest%

TOC of the extracted CD

Track | Start | Length | Start sector | End sector
———————————————————
1 | 0:00.00 | 3:31.73 | 0 | 15897
2 | 3:31.73 | 3:30.41 | 15898 | 31688
3 | 7:02.39 | 3:35.53 | 31689 | 47866
4 | 10:38.17 | 3:19.47 | 47867 | 62838
5 | 13:57.64 | 3:51.21 | 62839 | 80184
6 | 17:49.10 | 3:35.60 | 80185 | 96369
7 | 21:24.70 | 3:18.00 | 96370 | 111219
8 | 24:42.70 | 3:30.05 | 111220 | 126974
9 | 28:13.00 | 4:36.30 | 126975 | 147704
10 | 32:49.30 | 3:20.68 | 147705 | 162772
11 | 36:10.23 | 4:01.37 | 162773 | 180884
12 | 40:11.60 | 3:25.25 | 180885 | 196284
13 | 43:37.10 | 4:23.07 | 196285 | 216016
14 | 48:00.17 | 5:43.48 | 216017 | 241789
15 | 53:43.65 | 4:43.42 | 241790 | 263056
16 | 58:27.32 | 4:54.09 | 263057 | 285115

Range status and errors

Selected range

Filename G:\CD\Nazareth – The Fool Circle (Remaster 2010).wav

Peak level 97.7 %
Extraction speed 6.2 X
Range quality 100.0 %
Test CRC 5731472A
Copy CRC 5731472A
Copy OK

No errors occurred

AccurateRip summary

Track 1 accurately ripped (confidence 3) [23D2047A] (AR v2)
Track 2 accurately ripped (confidence 3) [44D0E0E3] (AR v2)
Track 3 accurately ripped (confidence 3) [0B9C9563] (AR v2)
Track 4 accurately ripped (confidence 3) [6B40E18F] (AR v2)
Track 5 accurately ripped (confidence 3) [40FA334B] (AR v2)
Track 6 accurately ripped (confidence 3) [53743070] (AR v2)
Track 7 accurately ripped (confidence 3) [93735111] (AR v2)
Track 8 accurately ripped (confidence 3) [8DC794DE] (AR v2)
Track 9 accurately ripped (confidence 3) [0B125687] (AR v2)
Track 10 accurately ripped (confidence 3) [607E3008] (AR v2)
Track 11 accurately ripped (confidence 3) [C9E73AB9] (AR v2)
Track 12 accurately ripped (confidence 3) [B63B731B] (AR v2)
Track 13 accurately ripped (confidence 3) [2182B72F] (AR v2)
Track 14 accurately ripped (confidence 3) [23D4D01B] (AR v2)
Track 15 accurately ripped (confidence 3) [D178C8AA] (AR v2)
Track 16 accurately ripped (confidence 3) [E4F9285F] (AR v2)

All tracks accurately ripped

End of status report

==== Log checksum 53180561324E692638A3D63FE6A0069B6D601BB0DEA2ED30E8D5B094A95E3E05 ====

EM GENRE “Hard Rock”
REM DATE 1981
REM DISCID DB0ED910
REM COMMENT “ExactAudioCopy v1.0b3”
PERFORMER “Nazareth”
TITLE “The Fool Circle (Remaster 2010)”
FILE “Nazareth – The Fool Circle (Remaster 2010).flac” WAVE
TRACK 01 AUDIO
TITLE “Dressed To Kill”
PERFORMER “Nazareth”
INDEX 01 00:00:00
TRACK 02 AUDIO
TITLE “Another Year”
PERFORMER “Nazareth”
INDEX 01 03:31:73
TRACK 03 AUDIO
TITLE “Moonlight Eyes”
PERFORMER “Nazareth”
INDEX 01 07:02:39
TRACK 04 AUDIO
TITLE “Pop The Silo”
PERFORMER “Nazareth”
INDEX 01 10:38:17
TRACK 05 AUDIO
TITLE “Let Me Be Your Leader”
PERFORMER “Nazareth”
INDEX 01 13:57:64
TRACK 06 AUDIO
TITLE “We Are The People”
PERFORMER “Nazareth”
INDEX 01 17:49:10
TRACK 07 AUDIO
TITLE “Every Young Man’s Dream”
PERFORMER “Nazareth”
INDEX 01 21:24:70
TRACK 08 AUDIO
TITLE “Little Part Of You”
PERFORMER “Nazareth”
INDEX 01 24:42:70
TRACK 09 AUDIO
TITLE “Cocaine (live)”
PERFORMER “Nazareth”
INDEX 01 28:13:00
TRACK 10 AUDIO
TITLE “Victoria”
PERFORMER “Nazareth”
INDEX 01 32:49:30
TRACK 11 AUDIO
TITLE “Morgantau (bonus)”
PERFORMER “Nazareth”
INDEX 01 36:10:23
TRACK 12 AUDIO
TITLE “Crazy (a suitable case for treatment) (bonus)”
PERFORMER “Nazareth”
INDEX 01 40:11:60
TRACK 13 AUDIO
TITLE “Razamanaz (live) (bonus)”
PERFORMER “Nazareth”
INDEX 01 43:37:10
TRACK 14 AUDIO
TITLE “Heart’s Grown Cold (live) (bonus)”
PERFORMER “Nazareth”
INDEX 01 48:00:17
TRACK 15 AUDIO
TITLE “Talkin’ To One Of The Boys (live) (bonus)”
PERFORMER “Nazareth”
INDEX 01 53:43:65
TRACK 16 AUDIO
TITLE “Hair Of The Dog (live) (bonus)”
PERFORMER “Nazareth”
INDEX 01 58:27:32


Leave a Reply

Your email address will not be published. Required fields are marked *

Enter the text from the image below
 

This site uses Akismet to reduce spam. Learn how your comment data is processed.