Nazareth – The Fool Circle (Remastered)




No Cover available

Artist: Nazareth
Year: 1980/1988
Genre: Rock
Notes: Discogs
Add. Notes: Remastered
Watch Songs on: YouTube
Cover incl.: Yes
Encoder: FLAC
Bitrate: ~900 kBit/s (44.1 kHz/16 Bit/s)
Log & Cue incl.: Yes/Yes
Size: 454,3 MB
Password: “slam” (without ” “)


All Downloads/Hosters are compatible

Download 1
KatFile.com
Turbobit.net
FileFactory.com
Rapidgator.net
Download 2
KatFile.com
Turbobit.net
FileFactory.com
Rapidgator.net

Tracklist:

1 Dressed To Kill 
2 Another Year 
3 Moonlight Eyes 
4 Pop The Silo 
5 Let Me Be Your Leader 
6 We Are The People 
7 Every Young Man's Dream 
8 Little Part Of You 
9 Cocaine "Live Version" 
10 Victoria 

Bonus Tracks
11 Every Young Man's Dream 
12 Big Boy 
13 Juicy Lucy 
14 Morning Dew

EAC-Log, CUE-Sheed & NFO:

Click to open spoiler
Exact Audio Copy V1.0 beta 3 from 29. August 2011

EAC extraction logfile from 24. September 2016, 10:11

Nazareth / The Fool Circle

Used drive : PLEXTOR DVDR PX-L890SA Adapter: 5 ID: 1

Read mode : Secure
Utilize accurate stream : Yes
Defeat audio cache : Yes
Make use of C2 pointers : No

Read offset correction : 6
Overread into Lead-In and Lead-Out : No
Fill up missing offset samples with silence : Yes
Delete leading and trailing silent blocks : No
Null samples used in CRC calculations : Yes
Used interface : Native Win32 interface for Win NT & 2000

Used output format : User Defined Encoder
Selected bitrate : 768 kBit/s
Quality : High
Add ID3 tag : No
Command line compressor : C:\Program Files (x86)\Exact Audio Copy\Flac\flac.exe
Additional command line options : -V -8 -T “Date=%year%” -T “Genre=%genre%” %source%

TOC of the extracted CD

Track | Start | Length | Start sector | End sector
———————————————————
1 | 0:00.00 | 3:34.10 | 0 | 16059
2 | 3:34.10 | 3:32.02 | 16060 | 31961
3 | 7:06.12 | 3:34.60 | 31962 | 48071
4 | 10:40.72 | 3:19.23 | 48072 | 63019
5 | 14:00.20 | 3:52.10 | 63020 | 80429
6 | 17:52.30 | 3:35.25 | 80430 | 96579
7 | 21:27.55 | 3:18.57 | 96580 | 111486
8 | 24:46.37 | 3:32.60 | 111487 | 127446
9 | 28:19.22 | 4:36.40 | 127447 | 148186
10 | 32:55.62 | 3:25.05 | 148187 | 163566
11 | 36:20.67 | 3:47.13 | 163567 | 180604
12 | 40:08.05 | 5:12.62 | 180605 | 204066
13 | 45:20.67 | 4:15.00 | 204067 | 223191
14 | 49:35.67 | 3:57.73 | 223192 | 241039

Range status and errors

Selected range

Filename H:\MUSIC\1980. Nazareth – The Fool Circle (Castle ESMCD 623, UK)\Nazareth – The Fool Circle.wav

Peak level 100.0 %
Extraction speed 8.6 X
Range quality 100.0 %
Test CRC 3AC93235
Copy CRC 3AC93235
Copy OK

No errors occurred

AccurateRip summary

Track 1 accurately ripped (confidence 4) [2513CD76] (AR v2)
Track 2 accurately ripped (confidence 4) [2DDB821A] (AR v2)
Track 3 accurately ripped (confidence 4) [445BC9D9] (AR v2)
Track 4 accurately ripped (confidence 4) [9FE55DFF] (AR v2)
Track 5 accurately ripped (confidence 4) [9FF9E589] (AR v2)
Track 6 accurately ripped (confidence 4) [3188B26A] (AR v2)
Track 7 accurately ripped (confidence 4) [FB857D66] (AR v2)
Track 8 accurately ripped (confidence 4) [8C29DC7D] (AR v2)
Track 9 accurately ripped (confidence 4) [5F5A5DE6] (AR v2)
Track 10 accurately ripped (confidence 4) [8021DFF4] (AR v2)
Track 11 accurately ripped (confidence 4) [F523FA1A] (AR v2)
Track 12 accurately ripped (confidence 4) [D1274446] (AR v2)
Track 13 accurately ripped (confidence 4) [2DAE716D] (AR v2)
Track 14 accurately ripped (confidence 4) [92053DBE] (AR v2)

All tracks accurately ripped

End of status report

==== Log checksum B9661682C92A6241C8D74DCBD6488E8408F5583773E0DEC0FDA3438FF1A2A183 ====

REM DISCID C30C8D0E
REM COMMENT “ExactAudioCopy v1.0b3”
PERFORMER “Nazareth”
TITLE “The Fool Circle”
FILE “Nazareth – The Fool Circle.flac” WAVE
TRACK 01 AUDIO
TITLE “Dressed To Kill”
PERFORMER “Nazareth”
INDEX 01 00:00:00
TRACK 02 AUDIO
TITLE “Another Year”
PERFORMER “Nazareth”
INDEX 00 03:32:55
INDEX 01 03:34:10
TRACK 03 AUDIO
TITLE “Moonlight Eyes”
PERFORMER “Nazareth”
INDEX 00 07:03:45
INDEX 01 07:06:12
TRACK 04 AUDIO
TITLE “Pop The Solo”
PERFORMER “Nazareth”
INDEX 01 10:40:72
TRACK 05 AUDIO
TITLE “Let Me Be Your Leader”
PERFORMER “Nazareth”
INDEX 00 13:59:27
INDEX 01 14:00:20
TRACK 06 AUDIO
TITLE “We Are The People”
PERFORMER “Nazareth”
INDEX 00 17:51:37
INDEX 01 17:52:30
TRACK 07 AUDIO
TITLE “Every Young Man’s Dream”
PERFORMER “Nazareth”
INDEX 00 21:26:17
INDEX 01 21:27:55
TRACK 08 AUDIO
TITLE “Little Part Of You”
PERFORMER “Nazareth”
INDEX 00 24:44:45
INDEX 01 24:46:37
TRACK 09 AUDIO
TITLE “Cocaine ‘Life Version'”
PERFORMER “Nazareth”
INDEX 00 28:15:30
INDEX 01 28:19:22
TRACK 10 AUDIO
TITLE “Victoria”
PERFORMER “Nazareth”
INDEX 00 32:54:30
INDEX 01 32:55:62
TRACK 11 AUDIO
TITLE “Every Young Man’s Dream (Live Version)”
PERFORMER “Nazareth”
INDEX 00 36:16:00
INDEX 01 36:20:67
TRACK 12 AUDIO
TITLE “Big Boy (Live Version)”
PERFORMER “Nazareth”
INDEX 01 40:08:05
TRACK 13 AUDIO
TITLE “Juicy Lucy (Live Version)”
PERFORMER “Nazareth”
INDEX 00 45:19:00
INDEX 01 45:20:67
TRACK 14 AUDIO
TITLE “Morning Dew (1981 Version)”
PERFORMER “Nazareth”
INDEX 00 49:34:00
INDEX 01 49:35:67


Leave a Reply

Your email address will not be published. Required fields are marked *

Enter the text from the image below
 

This site uses Akismet to reduce spam. Learn how your comment data is processed.