Nazareth – The Fool Circle (Reissue)




[Total: 0    Average: 0/5]

Artist: Nazareth
Year: 1980/1990
Genre: Rock
Notes: Discogs
Add. Notes: Reissue
Cover incl.: Yes
Encoder: FLAC
Bitrate: ~900 kBit/s (44.1 kHz/16 Bit/s)
Log & Cue incl.: Yes
Size: 310,72 MB
Password: “slam” (without ” “)


All Downloads/Hosters are compatible

Download 1
Share-online.biz
KatFile.com
Rapidgator.net
DoUploads.net
Download 2
Share-online.biz
KatFile.com
Rapidgator.net
DoUploads.net

Tracklist:

1 - Dressed To Kill - 3:34
2 - Another Year - 3:32
3 - Moonlight Eyes - 3:35
4 - Pop The Silo - 3:20
5 - Let Me Be Your Leader - 3:53
6 - We Are The People - 3:36
7 - Every Young Man's Dream - 3:19
8 - Little Part Of You - 3:33
9 - Cocaine (Live) - 4:37
10 - Victoria - 3:21

EAC-Log, CUE-Sheed & NFO:

Click to open spoiler
Exact Audio Copy V1.0 beta 3 from 29. August 2011

EAC extraction logfile from 10. March 2014, 23:57

Nazareth / The Fool Circle

Used drive : SONY BD RW BDX-S600U Adapter: 2 ID: 1

Read mode : Secure
Utilize accurate stream : Yes
Defeat audio cache : Yes
Make use of C2 pointers : No

Read offset correction : 48
Overread into Lead-In and Lead-Out : No
Fill up missing offset samples with silence : Yes
Delete leading and trailing silent blocks : No
Null samples used in CRC calculations : Yes
Used interface : Native Win32 interface for Win NT & 2000

Used output format : User Defined Encoder
Selected bitrate : 128 kBit/s
Quality : High
Add ID3 tag : No
Command line compressor : C:\Program Files (x86)\Exact Audio Copy\Flac\flac.exe
Additional command line options : -V -8 -T “Date=%year%” -T “Genre=%genre%” %source%

TOC of the extracted CD

Track | Start | Length | Start sector | End sector
———————————————————
1 | 0:00.32 | 3:34.20 | 32 | 16101
2 | 3:34.52 | 3:32.28 | 16102 | 32029
3 | 7:07.05 | 3:35.05 | 32030 | 48159
4 | 10:42.10 | 3:19.50 | 48160 | 63134
5 | 14:01.60 | 3:53.12 | 63135 | 80621
6 | 17:54.72 | 3:35.55 | 80622 | 96801
7 | 21:30.52 | 3:19.03 | 96802 | 111729
8 | 24:49.55 | 3:33.02 | 111730 | 127706
9 | 28:22.57 | 4:37.23 | 127707 | 148504
10 | 33:00.05 | 3:21.20 | 148505 | 163599

Range status and errors

Selected range

Filename D:\Nazareth discography\1980. Nazareth – The Fool Circle\1980. Nazareth – The Fool Circle (Castle Com., CLACD 214, UK)\Nazareth – The Fool Circle.wav

Peak level 100.0 %
Extraction speed 6.1 X
Range quality 100.0 %
Test CRC 3B9FB971
Copy CRC 3B9FB971
Copy OK

No errors occurred

AccurateRip summary

Track 1 accurately ripped (confidence 4) [147B3BC1] (AR v2)
Track 2 accurately ripped (confidence 4) [01CDABDF] (AR v2)
Track 3 accurately ripped (confidence 4) [154C5693] (AR v2)
Track 4 accurately ripped (confidence 4) [17C6E730] (AR v2)
Track 5 accurately ripped (confidence 4) [EB2590DF] (AR v2)
Track 6 accurately ripped (confidence 4) [E00A77D3] (AR v2)
Track 7 accurately ripped (confidence 4) [E379A283] (AR v2)
Track 8 accurately ripped (confidence 4) [078E460A] (AR v2)
Track 9 accurately ripped (confidence 4) [20B161C6] (AR v2)
Track 10 accurately ripped (confidence 4) [4D45F8B3] (AR v2)

All tracks accurately ripped

End of status report

—- CUETools DB Plugin V2.1.4

[CTDB TOCID: NJMdBmgdYXqXQtXHeTMrn59NkS8-] found
Submit result: NJMdBmgdYXqXQtXHeTMrn59NkS8- has been confirmed
Track | CTDB Status
1 | (3/4) Accurately ripped
2 | (3/4) Accurately ripped
3 | (3/4) Accurately ripped
4 | (3/4) Accurately ripped
5 | (3/4) Accurately ripped
6 | (3/4) Accurately ripped
7 | (3/4) Accurately ripped
8 | (3/4) Accurately ripped
9 | (3/4) Accurately ripped
10 | (3/4) Accurately ripped

==== Log checksum 548939340E8BF9CCFBA815731F163195E24D0E107A8E9BE8A6E0D0F0E0220E32 ====

REM GENRE Rock
REM DATE 1981
REM DISCID 8208850A
REM COMMENT “ExactAudioCopy v1.0b3”
CATALOG 0000000000000
PERFORMER “Nazareth”
TITLE “The Fool Circle”
FILE “Nazareth – The Fool Circle.flac” WAVE
TRACK 01 AUDIO
TITLE “Dressed to Kill”
PERFORMER “Nazareth”
INDEX 00 00:00:00
INDEX 01 00:00:32
TRACK 02 AUDIO
TITLE “Another Year”
PERFORMER “Nazareth”
INDEX 00 03:33:25
INDEX 01 03:34:52
TRACK 03 AUDIO
TITLE “Moonlight Eyes”
PERFORMER “Nazareth”
INDEX 00 07:04:27
INDEX 01 07:07:05
TRACK 04 AUDIO
TITLE “Pop the Silo”
PERFORMER “Nazareth”
INDEX 00 10:41:37
INDEX 01 10:42:10
TRACK 05 AUDIO
TITLE “Let Me Be Your Leader”
PERFORMER “Nazareth”
INDEX 00 14:01:12
INDEX 01 14:01:60
TRACK 06 AUDIO
TITLE “We Are the People”
PERFORMER “Nazareth”
INDEX 00 17:52:70
INDEX 01 17:54:72
TRACK 07 AUDIO
TITLE “Every Young Man’s Dream”
PERFORMER “Nazareth”
INDEX 00 21:29:57
INDEX 01 21:30:52
TRACK 08 AUDIO
TITLE “Little Part of You”
PERFORMER “Nazareth”
INDEX 00 24:48:52
INDEX 01 24:49:55
TRACK 09 AUDIO
TITLE “Cocaine”
PERFORMER “Nazareth”
INDEX 00 28:19:05
INDEX 01 28:22:57
TRACK 10 AUDIO
TITLE “Victoria”
PERFORMER “Nazareth”
INDEX 00 32:59:00
INDEX 01 33:00:05


Spread the Download

Leave a Reply

Your email address will not be published. Required fields are marked *

Enter the text from the image below
 

This site uses Akismet to reduce spam. Learn how your comment data is processed.