Nazareth – The Catch (Remastered)




Artist: Nazareth
Year: 1984/2002
Genre: Rock
Notes: Discogs
Add. Notes: Remastered
Cover incl.: Yes
Encoder: FLAC
Bitrate: ~900 kBit/s (44.1 kHz/16 Bit/s)
Log & Cue incl.: Yes
Size: 572,82 MB
Password: “slam” (without ” “)


All Downloads/Hosters are compatible

Download 1
Turbobit.net
KatFile.com
Rapidgator.net
NitroFlare.com
Download 2
Turbobit.net
KatFile.com
Rapidgator.net
NitroFlare.com

Tracklist:

1. Party Down
2. Ruby Tuesday
3. Last Exit Brooklyn
4. Moondance
5. Love Of Freedom
6. This Month's Messiah
7. You Don't Believe In Us
8. Sweetheart Tree
9. Road To Nowhere
10. Do You Think About It (EP Single B-Side)
11. Last Exit Brooklyn (Edited Version)
12. Ruby Tuesday (Extended Single Mix)
13. This Month's Messiah (Alternate Version)

EAC-Log, CUE-Sheed & NFO:

Click to open spoiler
Exact Audio Copy V1.1 from 23. June 2015

Отчёт EAC об извлечении, выполненном 18. августа 2016, 11:01

Nazareth / The Catch

Дисковод: TSSTcorpBDDVDW SE-506BB Adapter: 1 ID: 1

Режим чтения : Достоверность
Использование точного потока : Да
Отключение кэша аудио : Да
Использование указателей C2 : Нет

Коррекция смещения при чтении : 6
Способность читать области Lead-in и Lead-out : Нет
Заполнение пропущенных сэмплов тишиной : Да
Удаление блоков с тишиной в начале и конце : Нет
При вычислениях CRC использовались нулевые сэмплы : Да
Интерфейс : Встроенный Win32-интерфейс для Win NT/2000

Выходной формат : Внутренние WAV-операции
Формат сэмплов : 44.100 Гц; 16 бит; стерео

TOC извлечённого CD

Трек | Старт | Длительность | Начальный сектор | Конечный сектор
———————————————————————
1 | 0:00.00 | 6:26.00 | 0 | 28949
2 | 6:26.00 | 3:27.41 | 28950 | 44515
3 | 9:53.41 | 4:00.28 | 44516 | 62543
4 | 13:53.69 | 4:44.32 | 62544 | 83875
5 | 18:38.26 | 4:27.32 | 83876 | 103932
6 | 23:05.58 | 5:08.74 | 103933 | 127106
7 | 28:14.57 | 6:38.26 | 127107 | 156982
8 | 34:53.08 | 3:02.29 | 156983 | 170661
9 | 37:55.37 | 4:04.25 | 170662 | 188986
10 | 41:59.62 | 3:45.71 | 188987 | 205932
11 | 45:45.58 | 3:58.70 | 205933 | 223852
12 | 49:44.53 | 4:22.00 | 223853 | 243502
13 | 54:06.53 | 5:18.06 | 243503 | 267358

Характеристики диапазона извлечения и сообщения об ошибках

Выбранный диапазон

Имя файла D:\Temp\Nazareth – 1984 – The Catch [2002 Eagle Records, EAMCD142].wav

Пиковый уровень 100.0 %
Скорость извлечения 4.5 X
Качество диапазона 100.0 %
CRC теста 4AF8DFEA
CRC копии 4AF8DFEA
Копирование… OK

Ошибок не произошло

AccurateRip: сводка

Трек 1 : извлечено точно (доверие 5) [446E15E3] (AR v2)
Трек 2 : извлечено точно (доверие 5) [E185EAA0] (AR v2)
Трек 3 : извлечено точно (доверие 5) [6975006E] (AR v2)
Трек 4 : извлечено точно (доверие 5) [A2F9009E] (AR v2)
Трек 5 : извлечено точно (доверие 5) [86862E25] (AR v2)
Трек 6 : извлечено точно (доверие 5) [51D07F88] (AR v2)
Трек 7 : извлечено точно (доверие 5) [236BF78E] (AR v2)
Трек 8 : извлечено точно (доверие 5) [FA5CFB93] (AR v2)
Трек 9 : извлечено точно (доверие 5) [4C7B628D] (AR v2)
Трек 10 : извлечено точно (доверие 5) [F8DA69BE] (AR v2)
Трек 11 : извлечено точно (доверие 5) [06E4889E] (AR v2)
Трек 12 : извлечено точно (доверие 5) [B5254522] (AR v2)
Трек 13 : извлечено точно (доверие 5) [B9A5A89E] (AR v2)

Все треки извлечены точно

Конец отчёта

==== Контрольная сумма отчёта A5F01635945E2788E8BF50BD08E5C169CE973FB58F3AA00F94415B1E26DC494A ====

REM GENRE “Classic Rock”
REM DATE 1984
REM DISCID CF0DEC0D
REM COMMENT “ExactAudioCopy v1.1”
PERFORMER “Nazareth”
TITLE “The Catch”
FILE “Nazareth – 1984 – The Catch [2002 Eagle Records, EAMCD142].flac” WAVE
TRACK 01 AUDIO
TITLE “Party Down ”
PERFORMER “Nazareth”
INDEX 01 00:00:00
TRACK 02 AUDIO
TITLE “Ruby Tuesday”
PERFORMER “Nazareth”
INDEX 00 06:25:40
INDEX 01 06:26:00
TRACK 03 AUDIO
TITLE “Last Exit Brooklyn”
PERFORMER “Nazareth”
INDEX 00 09:52:67
INDEX 01 09:53:41
TRACK 04 AUDIO
TITLE “Moondance”
PERFORMER “Nazareth”
INDEX 00 13:52:64
INDEX 01 13:53:69
TRACK 05 AUDIO
TITLE “Love Of Freedom”
PERFORMER “Nazareth”
INDEX 00 18:37:61
INDEX 01 18:38:26
TRACK 06 AUDIO
TITLE “This Month’s Messiah”
PERFORMER “Nazareth”
INDEX 00 23:05:31
INDEX 01 23:05:58
TRACK 07 AUDIO
TITLE “You Don’t Believe In Us”
PERFORMER “Nazareth”
INDEX 00 28:14:37
INDEX 01 28:14:57
TRACK 08 AUDIO
TITLE “Sweetheart Tree”
PERFORMER “Nazareth”
INDEX 00 34:52:07
INDEX 01 34:53:08
TRACK 09 AUDIO
TITLE “Road To Nowhere”
PERFORMER “Nazareth”
INDEX 00 37:53:39
INDEX 01 37:55:37
TRACK 10 AUDIO
TITLE “Do You Think About It [*][EP single B-side]”
PERFORMER “Nazareth”
INDEX 00 41:55:00
INDEX 01 41:59:62
TRACK 11 AUDIO
TITLE “Last Exit Brooklyn [*][edited version]”
PERFORMER “Nazareth”
INDEX 00 45:45:54
INDEX 01 45:45:58
TRACK 12 AUDIO
TITLE “Ruby Tuesday [*][extended single mix]”
PERFORMER “Nazareth”
INDEX 00 49:42:71
INDEX 01 49:44:53
TRACK 13 AUDIO
TITLE “This Month’s Messiah [*][alternate version]”
PERFORMER “Nazareth”
INDEX 00 54:04:71
INDEX 01 54:06:53


Leave a Reply

Your email address will not be published. Required fields are marked *

This site uses Akismet to reduce spam. Learn how your comment data is processed.