Nazareth – The Catch (Remastered)




Artist: Nazareth
Year: 1984/1997
Genre: Metal
Notes: Discogs
Add. Notes: Remastered
Cover incl.: Yes
Encoder: FLAC
Bitrate: ~900 kBit/s (44.1 kHz/16 Bit/s)
Log & Cue incl.: Yes
Size: 384,6 MB
Password: “slam” (without ” “)


All Downloads/Hosters are compatible

Download 1
KatFile.com
Turbobit.net
Rapidgator.net
Download 2
KatFile.com
Turbobit.net
Rapidgator.net

Tracklist:

1 - Party Down - 6:25
2 - Ruby Tuesday - 3:27
3 - Last Exit Brooklyn - 4:00
4 - Moondance - 4:44
5 - Love Of Freedom - 4:29
6 - This Month's Messiah - 5:17
7 - You Don't Believe In Us - 6:38
8 - Sweetheart Tree - 3:02
9 - Road To Nowhere - 4:02
Bonus Tracks
10 - Do You Think About It (EP Single B Side) - 3:46
11 - Last Exit To Brooklyn (Previously Unreleased Edited 
Version) - 3:57

EAC-Log, CUE-Sheed & NFO:

Click to open spoiler
Exact Audio Copy V1.0 beta 3 from 29. August 2011

EAC extraction logfile from 1. May 2014, 1:35

Nazareth / The Catch

Used drive : SONY BD RW BDX-S600U Adapter: 2 ID: 1

Read mode : Secure
Utilize accurate stream : Yes
Defeat audio cache : Yes
Make use of C2 pointers : No

Read offset correction : 48
Overread into Lead-In and Lead-Out : No
Fill up missing offset samples with silence : Yes
Delete leading and trailing silent blocks : No
Null samples used in CRC calculations : Yes
Used interface : Native Win32 interface for Win NT & 2000

Used output format : User Defined Encoder
Selected bitrate : 128 kBit/s
Quality : High
Add ID3 tag : No
Command line compressor : C:\Program Files (x86)\Exact Audio Copy\Flac\flac.exe
Additional command line options : -V -8 -T “Date=%year%” -T “Genre=%genre%” %source%

TOC of the extracted CD

Track | Start | Length | Start sector | End sector
———————————————————
1 | 0:00.00 | 6:25.15 | 0 | 28889
2 | 6:25.15 | 3:27.47 | 28890 | 44461
3 | 9:52.62 | 4:00.23 | 44462 | 62484
4 | 13:53.10 | 4:44.12 | 62485 | 83796
5 | 18:37.22 | 4:29.23 | 83797 | 103994
6 | 23:06.45 | 5:17.42 | 103995 | 127811
7 | 28:24.12 | 6:38.18 | 127812 | 157679
8 | 35:02.30 | 3:02.32 | 157680 | 171361
9 | 38:04.62 | 4:02.55 | 171362 | 189566
10 | 42:07.42 | 3:46.03 | 189567 | 206519
11 | 45:53.45 | 3:57.32 | 206520 | 224326

Range status and errors

Selected range

Filename D:\Nazareth discography\Studio\1984. Nazareth – The Catch\1984. Nazareth – The Catch (Castle Comm., ESMCD499,UK)\Nazareth – The Catch.wav

Peak level 99.3 %
Extraction speed 6.6 X
Range quality 100.0 %
Test CRC 98C26DB1
Copy CRC 98C26DB1
Copy OK

No errors occurred

AccurateRip summary

Track 1 cannot be verified as accurate (confidence 2) [AF1B5570], AccurateRip returned [EA622F18] (AR v2)
Track 2 cannot be verified as accurate (confidence 2) [2A1A5F35], AccurateRip returned [4B9990CE] (AR v2)
Track 3 cannot be verified as accurate (confidence 2) [9FDA8E94], AccurateRip returned [A5F24094] (AR v2)
Track 4 cannot be verified as accurate (confidence 2) [D7BDD710], AccurateRip returned [76DE957E] (AR v2)
Track 5 cannot be verified as accurate (confidence 2) [8A139E10], AccurateRip returned [86F4DC9A] (AR v2)
Track 6 cannot be verified as accurate (confidence 2) [7B966C14], AccurateRip returned [48D73601] (AR v2)
Track 7 cannot be verified as accurate (confidence 2) [13C0D0C3], AccurateRip returned [B44F1835] (AR v2)
Track 8 cannot be verified as accurate (confidence 2) [563FD730], AccurateRip returned [A191FC64] (AR v2)
Track 9 cannot be verified as accurate (confidence 2) [D52C4302], AccurateRip returned [8BEDD9FE] (AR v2)
Track 10 cannot be verified as accurate (confidence 2) [44C4D3E8], AccurateRip returned [115F17E8] (AR v2)
Track 11 cannot be verified as accurate (confidence 2) [D08CF81F], AccurateRip returned [4BA767E4] (AR v2)

No tracks could be verified as accurate
You may have a different pressing from the one(s) in the database

End of status report

—- CUETools DB Plugin V2.1.4

[CTDB TOCID: 1..Q7a6W857p6HdzrarteXKDR8E-] found
Submit result: 1..Q7a6W857p6HdzrarteXKDR8E- has been confirmed
Track | CTDB Status
1 | (4/4) Accurately ripped
2 | (4/4) Accurately ripped
3 | (4/4) Accurately ripped
4 | (4/4) Accurately ripped
5 | (4/4) Accurately ripped
6 | (4/4) Accurately ripped
7 | (4/4) Accurately ripped
8 | (4/4) Accurately ripped
9 | (4/4) Accurately ripped
10 | (4/4) Accurately ripped
11 | (4/4) Accurately ripped

==== Log checksum 46F4651606A91FA350F316F9C508148FF34F8E6AB48B1F70A346BA76CE5DCF27 ====

REM GENRE “Hard Rock”
REM DATE 1984
REM DISCID A20BAF0B
REM COMMENT “ExactAudioCopy v1.0b3”
PERFORMER “Nazareth”
TITLE “The Catch”
FILE “Nazareth – The Catch.flac” WAVE
TRACK 01 AUDIO
TITLE “Party down”
PERFORMER “Nazareth”
INDEX 01 00:00:00
TRACK 02 AUDIO
TITLE “Ruby tuesday”
PERFORMER “Nazareth”
INDEX 01 06:25:15
TRACK 03 AUDIO
TITLE “Last exit brooklyn”
PERFORMER “Nazareth”
INDEX 01 09:52:62
TRACK 04 AUDIO
TITLE “Moondance”
PERFORMER “Nazareth”
INDEX 01 13:53:10
TRACK 05 AUDIO
TITLE “Love of freedom”
PERFORMER “Nazareth”
INDEX 01 18:37:22
TRACK 06 AUDIO
TITLE “This month’s messiah”
PERFORMER “Nazareth”
INDEX 01 23:06:45
TRACK 07 AUDIO
TITLE “You don’t believe in us”
PERFORMER “Nazareth”
INDEX 00 28:22:65
INDEX 01 28:24:12
TRACK 08 AUDIO
TITLE “Sweetheart tree”
PERFORMER “Nazareth”
INDEX 01 35:02:30
TRACK 09 AUDIO
TITLE “Road to nowhere”
PERFORMER “Nazareth”
INDEX 00 38:02:57
INDEX 01 38:04:62
TRACK 10 AUDIO
TITLE “Do you think about it”
PERFORMER “Nazareth”
INDEX 00 42:04:37
INDEX 01 42:07:42
TRACK 11 AUDIO
TITLE “Last exit brooklyn”
PERFORMER “Nazareth”
INDEX 01 45:53:45


Leave a Reply

Your email address will not be published. Required fields are marked *

This site uses Akismet to reduce spam. Learn how your comment data is processed.