Nazareth – The Ballad Album Vol. II




Artist: Nazareth
Year: 1990
Genre: Rock
Notes: Discogs
Add. Notes:
Cover incl.: Yes
Encoder: FLAC
Bitrate: ~800 kBit/s (44.1 kHz/16 Bit/s)
Log & Cue incl.: Yes
Size: 423 MB
Password: “slam” (without ” “)


All Downloads/Hosters are compatible

Download 1
KatFile.com
Turbobit.net
FileFactory.com
Rapidgator.net
Download 2
KatFile.com
Turbobit.net
FileFactory.com
Rapidgator.net

Tracklist:

1 - Winner On The Night - 4:10
2 - Child In The Sun - 4:55
3 - Juliet - 4:05
4 - Guilty - 3:38
5 - Whisky Drinkin' Woman - 5:39
6 - Holiday - 3:35
7 - Fallen Angel - 4:42
8 - Vigilante Man - 5:22
9 - Hang On To A Dream - 4:36
10 - Helpless - 4:59
11 - Love And Lost - 5:10
12 - Shot Me Down - 3:30
13 - Place In Your Heart - 2:59
14 - All The King's Horses - 4:24

EAC-Log, CUE-Sheed & NFO:

Click to open spoiler
Exact Audio Copy V1.0 beta 3 from 29. August 2011

EAC extraction logfile from 21. May 2014, 23:30

Nazareth / The Ballad Album Vol. II

Used drive : SONY BD RW BDX-S600U Adapter: 2 ID: 1

Read mode : Secure
Utilize accurate stream : Yes
Defeat audio cache : Yes
Make use of C2 pointers : No

Read offset correction : 48
Overread into Lead-In and Lead-Out : No
Fill up missing offset samples with silence : Yes
Delete leading and trailing silent blocks : No
Null samples used in CRC calculations : Yes
Used interface : Native Win32 interface for Win NT & 2000

Used output format : User Defined Encoder
Selected bitrate : 128 kBit/s
Quality : High
Add ID3 tag : No
Command line compressor : C:\Program Files (x86)\Exact Audio Copy\Flac\flac.exe
Additional command line options : -V -8 -T “Date=%year%” -T “Genre=%genre%” %source%

TOC of the extracted CD

Track | Start | Length | Start sector | End sector
———————————————————
1 | 0:00.33 | 4:12.42 | 33 | 18974
2 | 4:13.00 | 4:53.48 | 18975 | 40997
3 | 9:06.48 | 4:10.65 | 40998 | 59812
4 | 13:17.38 | 3:41.45 | 59813 | 76432
5 | 16:59.08 | 5:32.07 | 76433 | 101339
6 | 22:31.15 | 3:37.05 | 101340 | 117619
7 | 26:08.20 | 4:42.08 | 117620 | 138777
8 | 30:50.28 | 5:23.67 | 138778 | 163069
9 | 36:14.20 | 4:35.18 | 163070 | 183712
10 | 40:49.38 | 4:55.67 | 183713 | 205904
11 | 45:45.30 | 5:11.73 | 205905 | 229302
12 | 50:57.28 | 3:25.52 | 229303 | 244729
13 | 54:23.05 | 2:59.63 | 244730 | 258217
14 | 57:22.68 | 4:23.40 | 258218 | 277982

Range status and errors

Selected range

Filename D:\Nazareth discography\Compilations\1990. Nazareth – The Ballad Album Vol. II\1990. Nazareth – The Ballad Album Vol. II (Vertigo 842 404-2,Germany)\Nazareth – The Ballad Album Vol. II.wav

Peak level 98.6 %
Extraction speed 6.7 X
Range quality 99.9 %
Test CRC CC475EDB
Copy CRC CC475EDB
Copy OK

No errors occurred

AccurateRip summary

Track 1 accurately ripped (confidence 2) [3804BD29] (AR v2)
Track 2 accurately ripped (confidence 2) [50E2AA83] (AR v2)
Track 3 accurately ripped (confidence 3) [3903FE3A] (AR v2)
Track 4 accurately ripped (confidence 2) [1DE63CAB] (AR v2)
Track 5 accurately ripped (confidence 2) [3CD4D090] (AR v2)
Track 6 accurately ripped (confidence 3) [30638FFF] (AR v2)
Track 7 accurately ripped (confidence 3) [F2B3EFD8] (AR v2)
Track 8 accurately ripped (confidence 2) [FF70FE96] (AR v2)
Track 9 accurately ripped (confidence 3) [C19D8237] (AR v2)
Track 10 accurately ripped (confidence 3) [B84837DB] (AR v2)
Track 11 accurately ripped (confidence 2) [65A8E937] (AR v2)
Track 12 accurately ripped (confidence 2) [534BBB78] (AR v2)
Track 13 accurately ripped (confidence 2) [873B3556] (AR v2)
Track 14 accurately ripped (confidence 2) [62F291E9] (AR v2)

All tracks accurately ripped

End of status report

—- CUETools DB Plugin V2.1.4

[CTDB TOCID: xILaKWzIXhAvNjb3FmLW4YpbVF8-] disk not present in database
Submit result: xILaKWzIXhAvNjb3FmLW4YpbVF8- has been uploaded

==== Log checksum 9A34332EB8D2DDCBAEF6E5543564D486E5B1B3D02E0CB02467A862213EE5BB15 ====

REM GENRE Rock
REM DATE 1990
REM DISCID C50E7A0E
REM COMMENT “ExactAudioCopy v1.0b3”
CATALOG 0042284240420
PERFORMER “Nazareth”
TITLE “The Ballad Album Vol. II”
FILE “Nazareth – The Ballad Album Vol. II.flac” WAVE
TRACK 01 AUDIO
TITLE “Winner on the night”
PERFORMER “Nazareth”
ISRC DEF078904380
INDEX 00 00:00:00
INDEX 01 00:00:33
TRACK 02 AUDIO
TITLE “Child in the sun”
PERFORMER “Nazareth”
INDEX 00 04:10:38
INDEX 01 04:13:00
TRACK 03 AUDIO
TITLE “Juliet”
PERFORMER “Nazareth”
INDEX 00 09:04:30
INDEX 01 09:06:48
TRACK 04 AUDIO
TITLE “Guilty”
PERFORMER “Nazareth”
INDEX 00 13:14:58
INDEX 01 13:17:38
TRACK 05 AUDIO
TITLE “Whisky drinkin’ woman”
PERFORMER “Nazareth”
INDEX 00 16:56:43
INDEX 01 16:59:08
TRACK 06 AUDIO
TITLE “Holiday”
PERFORMER “Nazareth”
INDEX 00 22:28:20
INDEX 01 22:31:15
TRACK 07 AUDIO
TITLE “Fallen angel”
PERFORMER “Nazareth”
INDEX 00 26:05:53
INDEX 01 26:08:20
TRACK 08 AUDIO
TITLE “Vigilante man”
PERFORMER “Nazareth”
INDEX 00 30:47:58
INDEX 01 30:50:28
TRACK 09 AUDIO
TITLE “Hang on to a dream”
PERFORMER “Nazareth”
ISRC DEF078903140
INDEX 00 36:11:73
INDEX 01 36:14:20
TRACK 10 AUDIO
TITLE “Helpless”
PERFORMER “Nazareth”
ISRC DEF078903210
INDEX 00 40:46:65
INDEX 01 40:49:38
TRACK 11 AUDIO
TITLE “Loved and lost”
PERFORMER “Nazareth”
INDEX 00 45:44:30
INDEX 01 45:45:30
TRACK 12 AUDIO
TITLE “Shot me down”
PERFORMER “Nazareth”
INDEX 00 50:54:70
INDEX 01 50:57:28
TRACK 13 AUDIO
TITLE “Place in your heart”
PERFORMER “Nazareth”
INDEX 00 54:21:25
INDEX 01 54:23:05
TRACK 14 AUDIO
TITLE “All the king’s horses”
PERFORMER “Nazareth”
INDEX 00 57:21:28
INDEX 01 57:22:68


Leave a Reply

Your email address will not be published. Required fields are marked *

This site uses Akismet to reduce spam. Learn how your comment data is processed.